На всех торрентах на трекере установлена скидка на скачивание в размере 100 процентов(а).
 Возможность скачивания торрента НЕ зависит от ограничений при низком ратио, низком аплоаде, требуемом ратио или требуемом аплоаде.


Начать новую тему Ответить на тему
Статистика раздачи
Размер: 2.68 ГБ | Добавлен: 21 апр 2014, 22:04 | Скачали: 0
Сидеров: 0  [0 байт/сек]    Личеров: 0  [0 байт/сек]
Пред. тема | След. тема 

Автор
Сообщение

СообщениеДобавлено: 21 апр 2014, 22:04 

Вкратце: Девять пассажиров ночного рейса из Лос-Анджелеса в Бостон просыпаются и обнаруживают, что на самолете больше никого нет - ни других пассажиров, ни экипажа. Поскольку среди них есть опытный пилот, им удается приземлиться в штате Мэн. Но на этом их приключение только начинается. Оказывается, что они попали в "мир прошлого", полностью лишенный жизни и пожираемый загадочными монстрами, которых один из пассажиров (Бронсон Пинчот) называет "лангольеры".


Название:Лангольеры
Оригинальное название: The Langoliers
Год выхода: 1995
Жанр:Ужасы, фантастика, триллер, драма, детектив, экранизация
Выпущено: США / Laurel Entertainment Inc., Spelling Films Internationa, Worldvision, Image Design
Режиссер: Том Холлэнд

В ролях: Дэвид Морс, Дин Стокуэлл, Бакстер Харрис, Бронсон Пинчот, Патриция Уэттиг, Кристофер Коллет, Кимберли Риддл, Фрэнки Фэйзон, Марк Линдсей Чапман, Майкл Лоуден, Дэвид Форрестер, Крис Хендри, Дженнифер Николь Портер, Кейт Маберли, Том Холленд, Стивен Кинг


Качество: DVDRip
Видео: XviD, ~1938 Кбит/с, 704x528, 23.976 кадр/с
Аудио: Русский (AC3, 2 ch, ~192 Кбит/с ) / Авторский (Константин Дьяконов)
Продолжительность: 02:59:58


Общее
Полное имя : D:The Langoliers_1995_XVid_FilmRus.avi
Формат : AVI
Формат/Информация : Audio Video Interleave
Профиль формата : OpenDML
Размер файла : 2,68 Гбайт
Продолжительность : 2 ч. 59 м.
Общий поток : 2132 Кбит/сек
Программа кодирования : VirtualDubModRus 1.5.10.2 (build 2542/release)
Библиотека кодирования : VirtualDubMod build 2542/release

Видео
Идентификатор : 0
Формат : MPEG-4 Visual
Профиль формата : Advanced Simple@L5
Параметр BVOP формата : 1
Параметр QPel формата : Нет
Параметр GMC формата : Без точки перехода
Параметр матрицы формата : Выборочная
Идентификатор кодека : XVID
Идентификатор кодека/Подсказка : XviD
Продолжительность : 2 ч. 59 м.
Битрейт : 1929 Кбит/сек
Ширина : 704 пикселя
Высота : 528 пикселей
Соотношение сторон : 4:3
Частота кадров : 23,976 кадра/сек
Цветовое пространство : YUV
Субдискретизация насыщенности : 4:2:0
Битовая глубина : 8 бит
Тип развёртки : Прогрессивная
Метод сжатия : С потерями
Бит/(Пиксели*Кадры) : 0.216
Размер потока : 2,43 Гбайт (90%)
Библиотека кодирования : XviD 1.1.2 (UTC 2006-11-01)

Аудио
Идентификатор : 1
Формат : AC-3
Формат/Информация : Audio Coding 3
Расширение режима : CM (complete main)
Параметр Endianness формата : Big
Идентификатор кодека : 2000
Продолжительность : 2 ч. 59 м.
Вид битрейта : Постоянный
Битрейт : 192 Кбит/сек
Каналы : 2 канала
Расположение каналов : Front: L R
Частота : 48,0 КГц
Битовая глубина : 16 бит
Метод сжатия : С потерями
Размер потока : 247 Мбайт (9%)
Выравнивание : Разделение по промежуткам
Продолжительность промежутка : 42 мс. (1,00 видеокадр)
Время предзагрузки промежутка : 500 мс.
Язык : Russian




Релиз: от юлястенюгина
загрузка...
Правила, инструкции, FAQ!!!
Торрент  Добавлен [21 апр 2014, 22:04] Скачать торрент
Скачать торрент
[ Размер 14.08 КБ / Просмотров 5 ]

Статус  
 
Размер  2.68 ГБ
Приватный: Нет (DHT включён)
.torrent скачан  0
Как залить торрент? | Как скачать Torrent? | Как смотреть и слушать онлайн?  


     Отправить личное сообщение
   
Страница 1 из 1
Показать сообщения за:  Поле сортировки  
Начать новую тему Ответить на тему

   Похожие торренты   Автор   Ответы   Просмотры   Последнее сообщение 
В этой теме нет новых непрочитанных сообщений. Скачать торрент Проверен Кинг Стивен - Лангольеры [Stix37, (ЛИ), 2013 г., 160 kbps, MP3]

в форуме Зарубежная фантастика, фэнтези, мистика, ужасы, Размер: 621.84 МБ, Здоровье: 0%

Anonymous

0
0|0

1
0

11 сен 2016, 12:59

Anonymous Перейти к последнему сообщению

В этой теме нет новых непрочитанных сообщений. Скачать торрент Проверен Кинг Стивен - Лангольеры [Stix37 (ЛИ), 2013, Мистика, 128 kbps], M4B

в форуме Аудиокниги (AAC, ALAC), Размер: 493.15 МБ, Здоровье: 0%

Anonymous

0
0|0

1
0

28 авг 2016, 15:50

Anonymous Перейти к последнему сообщению

В этой теме нет новых непрочитанных сообщений. Скачать торрент Проверен Кинг Стивен - Лангольеры [Герасимов Вячеслав, 2011, Мистика, 128 kbps]

в форуме Аудиокниги (AAC, ALAC), Размер: 439.46 МБ, Здоровье: 0%

Anonymous

0
0|0

0
0

28 авг 2016, 18:04

Anonymous Перейти к последнему сообщению

В этой теме нет новых непрочитанных сообщений. Скачать торрент Проверен (Hard Rock) Van Halen - Live In Pensacola, Florida 11.03.1995 (DVD) - 1995 (DVDRip), MP3, 192 kbps

в форуме Classic Rock & Hard Rock, Размер: 160.09 МБ, Здоровье: 0%

Anonymous

0
0|0

0
0

13 ноя 2016, 15:08

Anonymous Перейти к последнему сообщению

В этой теме нет новых непрочитанных сообщений. Скачать торрент Проверен Кинг Стивен - Четверть после полуночи 01, Лангольеры [Герасимов Вячеслав, 2014 г., 96 kbps, MP3]

в форуме Зарубежная фантастика, фэнтези, мистика, ужасы, Размер: 495.84 МБ, Здоровье: 0%

Anonymous

0
0|0

2
0

11 сен 2016, 12:01

Anonymous Перейти к последнему сообщению



Сейчас этот форум просматривают: нет зарегистрированных пользователей и гости: 2


Вы не можете начинать темы
Вы не можете отвечать на сообщения
Вы не можете редактировать свои сообщения
Вы не можете удалять свои сообщения
Вы не можете добавлять вложения

Перейти:  

!ВНИМАНИЕ!
 Ресурс не предоставляет электронные версии произведений, а занимается лишь коллекционированием и каталогизацией ссылок, присылаемых и публикуемых на форуме нашими читателями. Если вы являетесь правообладателем какого-либо представленного материала и не желаете чтобы ссылка на него находилась в нашем каталоге, свяжитесь с нами и мы незамедлительно удалим её. Файлы для обмена на трекере предоставлены пользователями сайта, и администрация не несёт ответственности за их содержание. Просьба не заливать файлы, защищенные авторскими правами, а также файлы нелегального содержания!