На всех торрентах на трекере установлена скидка на скачивание в размере 100 процентов(а).
 Возможность скачивания торрента НЕ зависит от ограничений при низком ратио, низком аплоаде, требуемом ратио или требуемом аплоаде.


Начать новую тему Ответить на тему
Статистика раздачи
Размер: 763.73 МБ | Добавлен: 19 апр 2014, 18:52 | Скачали: 0
Сидеров: 0  [0 байт/сек]    Личеров: 0  [0 байт/сек]
Пред. тема | След. тема 

Автор
Сообщение

СообщениеДобавлено: 19 апр 2014, 18:52 

Ужас на глубине 9-ти миль / Nine Miles Down


Страна: США, Великобритания, Венгрия
Жанр: ужасы
Год выпуска: 2009
Продолжительность: 01:22:00

Перевод: Профессиональный (двухголосый закадровый)
Cубтитры: нет
Режиссер: Энтони Уоллер / Anthony Waller

В ролях: Эдриан Пол, Кейт Наута, Аманда Доуг, Энтони Уоллер, Юзеф Эмин, Аркадий Голубович

Описание: Главный герой фильма — эксперт по военной безопасности, прибывает в удаленный исследовательский центр для расследования происшествий, здесь случившихся. Научный лагерь, связь с которым была прервана, встречает героя пустыми коридорами. Что-то ужасающее прячется за, казалось бы, успокаивающей пустотой. Нечто кровавое и страшное незаметно подбирается…

Качество видео: HDRip \\\\BDRip 1080p//
Формат видео: AVI

Видео: 640x272 (2.35:1), 25 fps, XviD build 62 ~1121 kbps avg, 0.26 bit/pixel
Аудио: 48 kHz, MPEG Layer 3, 2 ch, ~160.00 kbps avg
MediaInfo
General
Complete name : C:\Documents and Settings\Администратор\Рабочий стол\Nine Miles Down.Rutracker.org.HDrip_Drek.avi
Format : AVI
Format/Info : Audio Video Interleave
File size : 764 MiB
Duration : 1h 22mn
Overall bit rate : 1 291 Kbps
Writing application : VirtualDubModRus 1.5.10.2 (build 2542/release)
Writing library : VirtualDubMod build 2542/release

Video
ID : 0
Format : MPEG-4 Visual
Format profile : Advanced Simple@L5
Format settings, BVOP : Yes
Format settings, QPel : No
Format settings, GMC : No warppoints
Format settings, Matrix : Default (MPEG)
Codec ID : XVID
Codec ID/Hint : XviD
Duration : 1h 22mn
Bit rate : 1 121 Kbps
Width : 640 pixels
Height : 272 pixels
Display aspect ratio : 2.35:1
Frame rate : 25.000 fps
Original frame rate : 24.000 fps
Resolution : 8 bits
Colorimetry : 4:2:0
Scan type : Progressive
Bits/(Pixel*Frame) : 0.258
Stream size : 663 MiB (87%)
Writing library : XviD 62

Audio
ID : 1
Format : MPEG Audio
Format version : Version 1
Format profile : Layer 3
Codec ID : 55
Codec ID/Hint : MP3
Duration : 1h 22mn
Bit rate mode : Constant
Bit rate : 160 Kbps
Channel(s) : 2 channels
Sampling rate : 48.0 KHz
Stream size : 94.7 MiB (12%)
Alignment : Aligned on interleaves
Interleave, duration : 40 ms (1.00 video frame)
Interleave, preload duration : 504 ms
Writing library : LAME3.98r
Encoding settings : -m s -V 4 -q 2 -lowpass 17.5 -b 160


Скриншоты
загрузка...
Правила, инструкции, FAQ!!!
Торрент  Добавлен [19 апр 2014, 18:52] Скачать торрент
Скачать торрент
[ Размер 30.35 КБ / Просмотров 2 ]

Статус  
 
Размер  763.73 МБ
Приватный: Нет (DHT включён)
.torrent скачан  0
Как залить торрент? | Как скачать Torrent? | Как смотреть и слушать онлайн?  


     Отправить личное сообщение
   
Страница 1 из 1
Показать сообщения за:  Поле сортировки  
Начать новую тему Ответить на тему

   Похожие торренты   Автор   Ответы   Просмотры   Последнее сообщение 
В этой теме нет новых непрочитанных сообщений. Скачать торрент Проверен [iPad] Английский пациент / The English Patient (Энтони Мингелла / Anthony Minghella) [1996, США, Великобритания, драма, мелодрама, военный, BDRip 720p]

в форуме Фильмы для iPod, iPhone, iPad, Размер: 4.34 ГБ, Здоровье: 100%

Гость

0
9|3

33
0

12 май 2015, 00:08

Гость Перейти к последнему сообщению

В этой теме нет новых непрочитанных сообщений. Скачать торрент Проверен Лесли Уоллер / Leslie Waller - Банкир / The Banker [1993, DOC]

в форуме Детективы и Боевики, Размер: 2.6 МБ, Здоровье: 100%

Anonymous

0
3|1

28
0

09 сен 2016, 00:17

Anonymous Перейти к последнему сообщению

В этой теме нет новых непрочитанных сообщений. Скачать торрент Проверен [iPad] Холодная гора / Cold Mountain (Энтони Мингелла / Anthony Minghella) [2003, США, Великобритания, Италия, Румыния, драма, мелодрама, военный, BDRip]

в форуме Фильмы для iPod, iPhone, iPad, Размер: 4.06 ГБ, Здоровье: 100%

Гость

0
5|1

54
0

14 май 2015, 00:19

Гость Перейти к последнему сообщению

В этой теме нет новых непрочитанных сообщений. Скачать торрент Проверен Мастера - Leslie Waller / Лесли Уоллер - Embassy / Посольство [1995, FB2/RTF/PDF, RUS]

в форуме Детективы и Боевики, Размер: 3.56 МБ, Здоровье: 0%

Anonymous

0
0|0

4
0

08 сен 2016, 21:42

Anonymous Перейти к последнему сообщению

В этой теме нет новых непрочитанных сообщений. Скачать торрент Проверен Роберт Уоллер / Robert Waller - Мосты округа Мэдисон / The Bridges of Madison County [2005, rtf, TXT]

в форуме Зарубежная литература (XX и XXI век), Размер: 1.01 МБ, Здоровье: 100%

Anonymous

0
5|2

2
0

08 сен 2016, 19:19

Anonymous Перейти к последнему сообщению



Сейчас этот форум просматривают: нет зарегистрированных пользователей и гости: 1


Вы не можете начинать темы
Вы не можете отвечать на сообщения
Вы не можете редактировать свои сообщения
Вы не можете удалять свои сообщения
Вы не можете добавлять вложения

Перейти:  

!ВНИМАНИЕ!
 Ресурс не предоставляет электронные версии произведений, а занимается лишь коллекционированием и каталогизацией ссылок, присылаемых и публикуемых на форуме нашими читателями. Если вы являетесь правообладателем какого-либо представленного материала и не желаете чтобы ссылка на него находилась в нашем каталоге, свяжитесь с нами и мы незамедлительно удалим её. Файлы для обмена на трекере предоставлены пользователями сайта, и администрация не несёт ответственности за их содержание. Просьба не заливать файлы, защищенные авторскими правами, а также файлы нелегального содержания!