На всех торрентах на трекере установлена скидка на скачивание в размере 100 процентов(а).
 Возможность скачивания торрента НЕ зависит от ограничений при низком ратио, низком аплоаде, требуемом ратио или требуемом аплоаде.


Начать новую тему Ответить на тему
Статистика раздачи
Размер: 743.14 МБ | Добавлен: 19 апр 2014, 18:50 | Скачали: 0
Сидеров: 10  [0 байт/сек]    Личеров: 3  [0 байт/сек]
Пред. тема | След. тема 

Автор
Сообщение

СообщениеДобавлено: 19 апр 2014, 18:50 

Кроличьи игры / The Bunny Game


Страна: США
Жанр: Ужасы
Год выпуска: 2010
Продолжительность: 01:16:18

Перевод: Одноголосый закадровый [Хихикающий доктор]

Cубтитры: нет
Режиссер: Адам Рахмайер / Adam Rehmeier

В ролях: Норвуд Фишер,Грегг Гилмор,Кертис Рейнольдс,Джейсон Тиммс....

Описание: Дальнобойщик мучает проститутку..долго и мучительно больно..))Мораль фильма: вообщем, не ходите девочки в проститутки, это плохо для вас кончится.

ОГРАНИЧЕНИЕ ПО ВОЗРАСТУ 21 ГОД

Сэмпл: http://multi-up.com/650669

Качество видео: DVDRip
Формат видео: AVI

Видео: 640x368 (1.74:1), 25 fps, XviD MPEG-4 ~1159 kbps avg, 0.20 bit/pixel
Аудио: 44.100 kHz, MPEG Layer 3, 2 ch, ~192.00 kbps avg
MediaInfo
General
Complete name : C:\Documents and Settings\Admin\Мои документы\Downloads\Krolichi.igru.2010.avi
Format : AVI
Format/Info : Audio Video Interleave
File size : 743 MiB
Duration : 1h 16mn
Overall bit rate : 1 362 Kbps
Writing application : VirtualDubMod 1.5.10.3 (build 2550/release)
Writing library : VirtualDubMod build 2550/release

Video
ID : 0
Format : MPEG-4 Visual
Format profile : Advanced Simple@L5
Format settings, BVOP : Yes
Format settings, QPel : No
Format settings, GMC : No warppoints
Format settings, Matrix : Default (H.263)
Muxing mode : Packed bitstream
Codec ID : XVID
Codec ID/Hint : XviD
Duration : 1h 16mn
Bit rate : 1 160 Kbps
Width : 640 pixels
Height : 368 pixels
Display aspect ratio : 16:9
Frame rate : 25.000 fps
Resolution : 8 bits
Colorimetry : 4:2:0
Scan type : Progressive
Bits/(Pixel*Frame) : 0.197
Stream size : 633 MiB (85%)
Writing library : XviD 1.2.1 (UTC 2008-12-04)

Audio
ID : 1
Format : MPEG Audio
Format version : Version 1
Format profile : Layer 3
Codec ID : 55
Codec ID/Hint : MP3
Duration : 1h 16mn
Bit rate mode : Constant
Bit rate : 192 Kbps
Channel(s) : 2 channels
Sampling rate : 44.1 KHz
Stream size : 105 MiB (14%)
Alignment : Split accross interleaves
Interleave, duration : 40 ms (1.00 video frame)
Interleave, preload duration : 500 ms
Скриншоты
загрузка...
Правила, инструкции, FAQ!!!
Торрент  Добавлен [19 апр 2014, 18:50] Скачать торрент
Скачать торрент
[ Размер 15.11 КБ / Просмотров 4 ]

Статус  
 
Размер  743.14 МБ
Приватный: Нет (DHT включён)
.torrent скачан  0
Как залить торрент? | Как скачать Torrent? | Как смотреть и слушать онлайн?  


     Отправить личное сообщение
   
Страница 1 из 1
Показать сообщения за:  Поле сортировки  
Начать новую тему Ответить на тему

   Похожие торренты   Автор   Ответы   Просмотры   Последнее сообщение 
В этой теме нет новых непрочитанных сообщений. Скачать торрент Третье измерение ада / The Devil's Chair (Адам Мэйсон / Adam Mason) [2006, Великобритания, ужасы, DVDRip] MVO

в форуме Ужасы, Размер: 1.46 ГБ, Здоровье: 0%

Anonymous

0
0|0

32
2

04 фев 2014, 21:27

Anonymous Перейти к последнему сообщению

В этой теме нет новых непрочитанных сообщений. Скачать торрент Замёрзшие / Frozen (Адам Грин / Adam Green) [2010, США, ужасы, триллер, драма, HDRip-AVC] Dub + Original Eng + Sub (Rus, Eng)

в форуме 720p | 1080p, Размер: 2.18 ГБ, Здоровье: 100%

Anonymous

0
37|12

30
0

13 фев 2014, 11:37

Anonymous Перейти к последнему сообщению

В этой теме нет новых непрочитанных сообщений. Скачать торрент Замёрзшие / Frozen (Адам Грин / Adam Green) [2010, Ужасы, триллер, драма, BDRip] Dub + Original (Eng) + Subs (Rus, Eng)

в форуме Ужасы, Размер: 1.7 ГБ, Здоровье: 100%

Anonymous

0
32|11

45
0

17 май 2014, 20:05

Anonymous Перейти к последнему сообщению

В этой теме нет новых непрочитанных сообщений. Скачать торрент Проверен [iPhone] Копы в глубоком запасе / The Other Guys (Адам МакКэй / Adam McKay) [2010, боевик, комедия, криминал, DVDRip, 480x200]

в форуме Фильмы для iPod, iPhone, iPad, Размер: 560.08 МБ, Здоровье: 100%

Anonymous

0
1|0

22
0

18 май 2015, 10:36

Anonymous Перейти к последнему сообщению

В этой теме нет новых непрочитанных сообщений. Скачать торрент Проверен Молодой Адам / Young Adam (2003) DVDRip | Р

в форуме Триллеры, Размер: 1.45 ГБ, Здоровье: 58%

Гость

0
10|17

59
9

21 дек 2014, 18:57

Гость Перейти к последнему сообщению



Сейчас этот форум просматривают: нет зарегистрированных пользователей и гости: 1


Вы не можете начинать темы
Вы не можете отвечать на сообщения
Вы не можете редактировать свои сообщения
Вы не можете удалять свои сообщения
Вы не можете добавлять вложения

Перейти:  

!ВНИМАНИЕ!
 Ресурс не предоставляет электронные версии произведений, а занимается лишь коллекционированием и каталогизацией ссылок, присылаемых и публикуемых на форуме нашими читателями. Если вы являетесь правообладателем какого-либо представленного материала и не желаете чтобы ссылка на него находилась в нашем каталоге, свяжитесь с нами и мы незамедлительно удалим её. Файлы для обмена на трекере предоставлены пользователями сайта, и администрация не несёт ответственности за их содержание. Просьба не заливать файлы, защищенные авторскими правами, а также файлы нелегального содержания!