На всех торрентах на трекере установлена скидка на скачивание в размере 100 процентов(а).
 Возможность скачивания торрента НЕ зависит от ограничений при низком ратио, низком аплоаде, требуемом ратио или требуемом аплоаде.


Начать новую тему Ответить на тему
Статистика раздачи
Размер: 1.46 ГБ | Добавлен: 14 апр 2014, 09:25 | Скачали: 0
Сидеров: 0  [0 байт/сек]    Личеров: 0  [0 байт/сек]
Пред. тема | След. тема 

Автор
Сообщение

СообщениеДобавлено: 14 апр 2014, 09:25 

Пункт назначения 3 / Final Destination 3
«Прокатись с ветерком... и со Смертью!»

Год выпуска: 2006
Выпущено: Германия, США, Канада / New Line Cinema
Жанр: ужасы, детектив
Продолжительность: 01:32:50
Перевод: Профессиональный (полное дублирование)
BD CEE
Cубтитры: нет
Режиссер:
Джеймс Вонг / James Wong


В ролях:
Мэри Элизабет Уинстэд (Wendy Christensen), Райан Мерриман (Kevin Fischer), Крис Лемке (Ian McKinley), Алекс Джонсон (Erin), Сэм Истон (Frankie Cheeks), Джесси Мосс (Jason Wise), Джина Холден (Carrie Dreyer), Тексас Бэттл (Lewis Romero), Челан Симмонс (Ashley Freund), Кристал Лоу (Ashlyn Halperin)


Описание:
Главная героиня фильма — старшеклассница Венди Кристенсен, у которой однажды возникло предчувствие, что она и ее друзья станут жертвами несчастного случая, который произойдет на «американских горках».
Когда же самые страшные опасения Венди подтверждаются, то те, кто сумел все-таки обмануть смерть и выжить, оказываются вынужденными расплачиваться за то, что изменили свою судьбу…





Качество: BDRip [Final Destination 2006 CEE 1080p Bluray AVC TrueHD 5.1 DVDSEED - Gogeta]
Формат: AVI

Видео: 720x304 (2.37:1), 23.976 fps, XviD build 73 ~1789 kbps avg, 0.34 bit/pixel
Аудио: 48 kHz, AC3 Dolby Digital, 3/2 (L,C,R,l,r) + LFE ch, ~448.00 kbps avg
Скриншоты
MediaInfo
Код:
Код:
General
Complete name                            : D:\Punkt_naznacheniya_3_2006_BDRip_by_Dalemake.avi
Format                                   : AVI
Format/Info                              : Audio Video Interleave
File size                                : 1.46 GiB
Duration                                 : 1h 32mn
Overall bit rate                         : 2 247 Kbps
Writing application                      : VirtualDubMod 1.5.10.3 | www.virtualdub-fr.org || (build 2550/release)
Writing library                          : VirtualDubMod build 2550/release

Video
ID                                       : 0
Format                                   : MPEG-4 Visual
Format profile                           : Advanced Simple@L5
Format settings, BVOP                    : 1
Format settings, QPel                    : No
Format settings, GMC                     : No warppoints
Format settings, Matrix                  : Custom
Codec ID                                 : XVID
Codec ID/Hint                            : XviD
Duration                                 : 1h 32mn
Bit rate                                 : 1 790 Kbps
Width                                    : 720 pixels
Height                                   : 304 pixels
Display aspect ratio                     : 2.35:1
Frame rate                               : 23.976 fps
Color space                              : YUV
Chroma subsampling                       : 4:2:0
Bit depth                                : 8 bits
Scan type                                : Progressive
Compression mode                         : Lossy
Bits/(Pixel*Frame)                       : 0.341
Stream size                              : 1.16 GiB (80%)
Writing library                          : XviD 73

Audio
ID                                       : 1
Format                                   : AC-3
Format/Info                              : Audio Coding 3
Mode extension                           : CM (complete main)
Format settings, Endianness              : Big
Codec ID                                 : 2000
Duration                                 : 1h 32mn
Bit rate mode                            : Constant
Bit rate                                 : 448 Kbps
Channel(s)                               : 6 channels
Channel positions                        : Front: L C R, Side: L R, LFE
Sampling rate                            : 48.0 KHz
Bit depth                                : 16 bits
Compression mode                         : Lossy
Stream size                              : 298 MiB (20%)
Alignment                                : Split accross interleaves
Interleave, duration                     : 42 ms (1.00 video frame)
Interleave, preload duration             : 500 ms
загрузка...
Правила, инструкции, FAQ!!!
Торрент  Добавлен [14 апр 2014, 09:25] Скачать торрент
Скачать торрент
[ Размер 15.19 КБ / Просмотров 4 ]

Статус  
 
Размер  1.46 ГБ
Приватный: Нет (DHT включён)
.torrent скачан  0
Как залить торрент? | Как скачать Torrent? | Как смотреть и слушать онлайн?  


     Отправить личное сообщение
   
Страница 1 из 1
Показать сообщения за:  Поле сортировки  
Начать новую тему Ответить на тему

   Похожие торренты   Автор   Ответы   Просмотры   Последнее сообщение 
В этой теме нет новых непрочитанных сообщений. Скачать торрент [VIDEO] Пункт назначения 3 / Final Destination 3 (Джеймс Вонг) [2006, ужасы, триллер, детектив, HDRip] [MP4, 640x] Dub

в форуме Видео для смартфонов и КПК, Размер: 803.41 МБ, Здоровье: 100%

Anonymous

0
11|4

39
0

30 янв 2014, 06:44

Anonymous Перейти к последнему сообщению

В этой теме нет новых непрочитанных сообщений. Скачать торрент Пункт назначения 4 / The Final Destination (Дэвид Р. Эллис / David R. Ellis) [2009, США, Ужасы, детектив, BDRip] Dub

в форуме Ужасы, Размер: 1.46 ГБ, Здоровье: 0%

Anonymous

0
0|0

30
0

14 апр 2014, 09:28

Anonymous Перейти к последнему сообщению

В этой теме нет новых непрочитанных сообщений. Скачать торрент Проверен Пункт назначения 3 / Final Destination 3 (2006) BDRip 720p

в форуме 720p | 1080p, Размер: 2.66 ГБ, Здоровье: 100%

Anonymous

0
17|2

24
650

03 авг 2014, 01:50

Anonymous Перейти к последнему сообщению

В этой теме нет новых непрочитанных сообщений. Скачать торрент Проверен [PSP] Пункт назначения 5 / Final Destination 5 (2011) BDRip

в форуме Видео для смартфонов и КПК, Размер: 507.21 МБ, Здоровье: 100%

Anonymous

0
9|1

67
0

25 окт 2014, 23:26

Anonymous Перейти к последнему сообщению

В этой теме нет новых непрочитанных сообщений. Скачать торрент Проверен Пункт назначения 5 / Final Destination 5 (2011) BDRip 720p

в форуме 720p | 1080p, Размер: 2.07 ГБ, Здоровье: 100%

Anonymous

0
48|2

33
1397

03 авг 2014, 01:05

Anonymous Перейти к последнему сообщению



Сейчас этот форум просматривают: нет зарегистрированных пользователей и гости: 1


Вы не можете начинать темы
Вы не можете отвечать на сообщения
Вы не можете редактировать свои сообщения
Вы не можете удалять свои сообщения
Вы не можете добавлять вложения

Перейти:  

!ВНИМАНИЕ!
 Ресурс не предоставляет электронные версии произведений, а занимается лишь коллекционированием и каталогизацией ссылок, присылаемых и публикуемых на форуме нашими читателями. Если вы являетесь правообладателем какого-либо представленного материала и не желаете чтобы ссылка на него находилась в нашем каталоге, свяжитесь с нами и мы незамедлительно удалим её. Файлы для обмена на трекере предоставлены пользователями сайта, и администрация не несёт ответственности за их содержание. Просьба не заливать файлы, защищенные авторскими правами, а также файлы нелегального содержания!