На всех торрентах на трекере установлена скидка на скачивание в размере 100 процентов(а).
 Возможность скачивания торрента НЕ зависит от ограничений при низком ратио, низком аплоаде, требуемом ратио или требуемом аплоаде.


Начать новую тему Ответить на тему
Статистика раздачи
Размер: 1.45 ГБ | Добавлен: 05 апр 2014, 11:35 | Скачали: 0
Сидеров: 0  [0 байт/сек]    Личеров: 0  [0 байт/сек]
Пред. тема | След. тема 

Автор
Сообщение

СообщениеДобавлено: 05 апр 2014, 11:35 

Девушка напротив / The Girl Next Door (2007) HDRip-AVC


Название: Девушка напротив
Оригинальное название: The Girl Next Door
Год выхода: 2007
Жанр: ужасы, триллер, драма, криминал
Режиссер: Грегори Уилсон

В ролях: Бланш Бэйкер, Блайт Оффарт, Дэниэл Манче, Уильям Этертон, Кевин Чэмберлин, Дин Фолкенберри, Гэбриэлль Ховарт, Бенжамин Росс Каплан, Спенсер Ли, Марк Марголис

О фильме: Подросток Дэвид Морган, во время ловли раков, знакомится со своей новой соседкой — 16-ти летней Меган, которая, со своей 10-ти летней сестрой Сьюзан, живет в семье Чендлеров. Миссис Чендлер, которую дети зовут «Руфь», не самая хорошая мать. У нее трое сыновей, которым она разрешает пить пиво, и иногда заводит с ними непристойные разговоры.

Меган и Сьюзан непросто живется в доме «Тетушки Руфь». Они вынуждены терпеть побои и унижения со стороны членов семьи. Мэг не выдерживает и докладывает об этом шерифу, за что Руфь решает её проучить. Дэвид застал Руфь и её сыновей за истязаниями Мэг. Он не мог уснуть всю ночь и решил помочь ей…



Страна: США
Продолжительность: 01:31:10
Перевод: Профессиональный (многоголосый закадровый)


Кодек: x.264
Качество: HDRip-AVC
Видео: 1024x576 (16:9), 23,976 fps, 1895 kbps, 0.134 bit/pixel
Звук: 48 kHz, AC3 Dolby Digital, 6 ch, ~384.00 kbps
Субтитры: Английские (отключаемые)

&

Общее
Уникальный идентификатор : 227116320951643542431445913877273596816 (0xAADD0328950289EA924F8158726B5390)
Полное имя : D:The Girl Next Door .2007.HDRip-AVC.mkv
Формат : Matroska
Версия формата : Version 4 / Version 2
Размер файла : 1,45 Гбайт
Продолжительность : 1 ч. 31 м.
Общий поток : 2277 Кбит/сек
Название фильма : Девушка напротив / The Girl Next Door (2007) HDRip-AVC rip by Rulya74
Дата кодирования : UTC 2014-04-02 14:24:05
Программа кодирования : mkvmerge v6.5.0 ('Isn't she lovely') built on Oct 20 2013 12:50:05
Библиотека кодирования : libebml v1.3.0 + libmatroska v1.4.1

Видео
Идентификатор : 1
Формат : AVC
Формат/Информация : Advanced Video Codec
Профиль формата : High@L4.1
Параметр CABAC формата : Да
Параметр ReFrames формата : 9 кадров
Идентификатор кодека : V_MPEG4/ISO/AVC
Продолжительность : 1 ч. 31 м.
Битрейт : 1895 Кбит/сек
Ширина : 1024 пикселя
Высота : 576 пикселей
Соотношение сторон : 16:9
Режим частоты кадров : Постоянный
Частота кадров : 23,976 кадра/сек
Цветовое пространство : YUV
Субдискретизация насыщенности : 4:2:0
Битовая глубина : 8 бит
Тип развёртки : Прогрессивная
Бит/(Пиксели*Кадры) : 0.134
Размер потока : 1,18 Гбайт (81%)
Библиотека кодирования : x264 core 138 r2358 9e941d1
Настройки программы : cabac=1 / ref=9 / deblock=1:-1:-1 / analyse=0x3:0x113 / me=umh / subme=11 / psy=1 / psy_rd=1.16:0.70 / mixed_ref=1 / me_range=48 / chroma_me=1 / trellis=2 / 8x8dct=1 / cqm=0 / deadzone=21,11 / fast_pskip=0 / chroma_qp_offset=-4 / threads=8 / lookahead_threads=2 / sliced_threads=0 / nr=0 / decimate=1 / interlaced=0 / bluray_compat=0 / constrained_intra=0 / bframes=13 / b_pyramid=2 / b_adapt=2 / b_bias=0 / direct=3 / weightb=1 / open_gop=0 / weightp=2 / keyint=240 / keyint_min=23 / scenecut=40 / intra_refresh=0 / rc_lookahead=40 / rc=2pass / mbtree=1 / bitrate=1895 / ratetol=1.0 / qcomp=0.60 / qpmin=0 / qpmax=69 / qpstep=4 / cplxblur=20.0 / qblur=0.5 / vbv_maxrate=62500 / vbv_bufsize=78125 / nal_hrd=none / ip_ratio=1.40 / aq=2:1.00
Default : Да
Forced : Нет

Аудио
Идентификатор : 2
Формат : AC-3
Формат/Информация : Audio Coding 3
Расширение режима : CM (complete main)
Параметр Endianness формата : Big
Идентификатор кодека : A_AC3
Продолжительность : 1 ч. 31 м.
Вид битрейта : Постоянный
Битрейт : 384 Кбит/сек
Каналы : 6 каналов
Расположение каналов : Front: L C R, Side: L R, LFE
Частота : 48,0 КГц
Битовая глубина : 16 бит
Метод сжатия : С потерями
Размер потока : 250 Мбайт (17%)
Заголовок : Профессиональный (многоголосый закадровый)
Язык : Russian
Default : Да
Forced : Нет

Текст
Идентификатор : 3
Формат : UTF-8
Идентификатор кодека : S_TEXT/UTF8
Идентификатор кодека/Информация : UTF-8 Plain Text
Язык : English
Default : Да
Forced : Нет

загрузка...
Правила, инструкции, FAQ!!!
Торрент  Добавлен [05 апр 2014, 11:35] Скачать торрент
Скачать торрент
[ Размер 15.01 КБ / Просмотров 18 ]

Статус  
 
Размер  1.45 ГБ
Приватный: Нет (DHT включён)
.torrent скачан  0
Как залить торрент? | Как скачать Torrent? | Как смотреть и слушать онлайн?  


     Отправить личное сообщение
   
Страница 1 из 1
Показать сообщения за:  Поле сортировки  
Начать новую тему Ответить на тему

   Похожие торренты   Автор   Ответы   Просмотры   Последнее сообщение 
В этой теме нет новых непрочитанных сообщений. Скачать торрент Девушка напротив / The Girl Next Door (2007) HDRip | Р

в форуме Драмы, Мелодрамы, Размер: 741.54 МБ, Здоровье: 0%

Anonymous

0
0|0

30
0

09 дек 2013, 21:44

Anonymous Перейти к последнему сообщению

В этой теме нет новых непрочитанных сообщений. Скачать торрент Проверен [iPod] Трилогия: Миллениум (Девушка с татуировкой дракона , Девушка, которая играла с огнём, Девушка, которая взрывала воздушные замки) / The Girl with the Dragon Tattoo, The Girl Who Played with Fire, The Girl Who Kicked the Hornet’s Nest[2009 г.,Тр

в форуме Фильмы для iPod, iPhone, iPad, Размер: 1.83 ГБ, Здоровье: 100%

Anonymous

0
32|10

167
0

12 май 2015, 00:07

Anonymous Перейти к последнему сообщению

В этой теме нет новых непрочитанных сообщений. Скачать торрент Проверен Zoё Elizabeth Sugg / Сагг, Зои - Girl Online / Девушка Online; Girl Online: On Tour / Девушка Online: в турне [2016, PDF/DjVu/FB2, RUS]

в форуме Зарубежная литература (XX и XXI век), Размер: 34.9 МБ, Здоровье: 0%

Anonymous

0
0|0

3
0

08 сен 2016, 19:44

Anonymous Перейти к последнему сообщению

В этой теме нет новых непрочитанных сообщений. Скачать торрент Провинциалка / Девушка из пригорода / Suburban Girl (2007) DVDRip | Р

в форуме Драмы, Мелодрамы, Размер: 1.45 ГБ, Здоровье: 0%

Anonymous

0
0|0

50
2

18 янв 2014, 21:02

Anonymous Перейти к последнему сообщению

В этой теме нет новых непрочитанных сообщений. Скачать торрент Девушка моего лучшего друга / My Best Friend's Girl (Ховард Дойч / Howard Deutch) [2008 г., Комедия, HDRip] Dub

в форуме Комедии, Размер: 1.46 ГБ, Здоровье: 100%

Anonymous

0
56|19

24
0

02 апр 2014, 12:08

Anonymous Перейти к последнему сообщению



Сейчас этот форум просматривают: нет зарегистрированных пользователей и гости: 1


Вы не можете начинать темы
Вы не можете отвечать на сообщения
Вы не можете редактировать свои сообщения
Вы не можете удалять свои сообщения
Вы не можете добавлять вложения

Перейти:  

!ВНИМАНИЕ!
 Ресурс не предоставляет электронные версии произведений, а занимается лишь коллекционированием и каталогизацией ссылок, присылаемых и публикуемых на форуме нашими читателями. Если вы являетесь правообладателем какого-либо представленного материала и не желаете чтобы ссылка на него находилась в нашем каталоге, свяжитесь с нами и мы незамедлительно удалим её. Файлы для обмена на трекере предоставлены пользователями сайта, и администрация не несёт ответственности за их содержание. Просьба не заливать файлы, защищенные авторскими правами, а также файлы нелегального содержания!