На всех торрентах на трекере установлена скидка на скачивание в размере 100 процентов(а).
 Возможность скачивания торрента НЕ зависит от ограничений при низком ратио, низком аплоаде, требуемом ратио или требуемом аплоаде.


Начать новую тему Ответить на тему
Статистика раздачи
Размер: 1.46 ГБ | Добавлен: 03 апр 2014, 12:43 | Скачали: 0
Сидеров: 56  [0 байт/сек]    Личеров: 19  [0 байт/сек]
Пред. тема | След. тема 

Автор
Сообщение

СообщениеДобавлено: 03 апр 2014, 12:43 

1408 / 1408
[Театральная версия / Theatrical Cut]
«The Dolphin Hotel invites you to stay in any of its stunning rooms. Except one...»

Страна: США
Жанр: Ужасы, триллер
Год выпуска: 2007
Продолжительность: 01:44:15
Перевод: Профессиональный (дублированный)
Cубтитры: нет
Режиссер: Микаэль Хафстрем / Mikael Håfström
В ролях: Джон Кьюсак, Мэри МакКормак, Сэмюэл Л. Джексон, Тони Шэлуб, Пол Бирчард, Марго Лейкестер, Уолтер Льюис, Эрик Мейерс, Дэвид Николсон, Холли Хэйес, Александра Силбер, Йохан Урб, Эндрю Ли Поттс, Эмили Харви, Уильям Армстронг, Ким Томсон, Дрю Пауэлл, Ной Маргеттс, Джил Коэн-Аллоро, Исайя Уитлок мл., Бенни Уркидез, Жасмин Джессика Энтони, Лен Кариу, Рэй Николас, Пол Кэйси, Джордж Коттл, Джулиан Спенсер, Уильям Уиллогби
Описание: Известный писатель Майк Энслин, сочиняющий свои романы в жанре «ужасы», пишет очередную книгу о необычных явлениях и полтергейсте в отелях. Не верящий в существование загробной жизни, Энслин решает поселиться в печально известном номере 1408 гостиницы «Дельфин», который пустует многие годы: по слухам, там обитают привидения. Невзирая на предупреждения старшего менеджера мистера Джеральда Олина о грозящей опасности, упрямец настаивает на своем, даже не предполагая, каким кошмаром обернется предстоящая ночь…


Sample




Тип релиза: BDRip [исх. Blu-ray 1080p]
Формат видео: AVI
Видео: 720x288 (2.50:1), 23.976 fps, XviD build 50, 1617 kbps avg, 0.33 bit/pixel
Аудио: 48 kHz, AC3 Dolby Digital, 3/2 (L,C,R,l,r) + LFE ch, 384.00 kbps avg [Russian_Dub]
MediaInfo
General
Complete name : E:\Мои раздачи\1408_BDRip_RG_All_Films.avi
Format : AVI
Format/Info : Audio Video Interleave
File size : 1.46 GiB
Duration : 1h 44mn
Overall bit rate : 2 011 Kbps
Writing application : VirtualDubMod 1.5.10.3 | http://www.virtualdub-fr.org || (build 2550/release)
Writing library : VirtualDubMod build 2550/release

Video
ID : 0
Format : MPEG-4 Visual
Format profile : Advanced Simple@L5
Format settings, BVOP : Yes
Format settings, QPel : No
Format settings, GMC : No warppoints
Format settings, Matrix : Custom
Codec ID : XVID
Codec ID/Hint : XviD
Duration : 1h 44mn
Bit rate : 1 618 Kbps
Width : 720 pixels
Height : 288 pixels
Display aspect ratio : 2.500
Frame rate : 23.976 fps
Color space : YUV
Chroma subsampling : 4:2:0
Bit depth : 8 bits
Scan type : Progressive
Compression mode : Lossy
Bits/(Pixel*Frame) : 0.325
Stream size : 1.18 GiB (80%)
Writing library : XviD 1.2.1 (UTC 2008-12-04)

Audio
ID : 1
Format : AC-3
Format/Info : Audio Coding 3
Mode extension : CM (complete main)
Codec ID : 2000
Duration : 1h 44mn
Bit rate mode : Constant
Bit rate : 384 Kbps
Channel(s) : 6 channels
Channel positions : Front: L C R, Side: L R, LFE
Sampling rate : 48.0 KHz
Bit depth : 16 bits
Compression mode : Lossy
Stream size : 286 MiB (19%)
Alignment : Split accross interleaves
Interleave, duration : 42 ms (1.00 video frame)
Interleave, preload duration : 500 ms
Скриншоты
загрузка...
Правила, инструкции, FAQ!!!
Торрент  Добавлен [03 апр 2014, 12:43] Скачать торрент
Скачать торрент
[ Размер 15.13 КБ / Просмотров 14 ]

Статус  
 
Размер  1.46 ГБ
Приватный: Нет (DHT включён)
.torrent скачан  0
Как залить торрент? | Как скачать Torrent? | Как смотреть и слушать онлайн?  


     Отправить личное сообщение
   
Страница 1 из 1
Показать сообщения за:  Поле сортировки  
Начать новую тему Ответить на тему

   Похожие торренты   Автор   Ответы   Просмотры   Последнее сообщение 
В этой теме нет новых непрочитанных сообщений. Скачать торрент Зло / Evil / Ondskan (Микаэль Хафстрем / Mikael Hafstrom) [2003 г., Драма, триллер, BDRip] DVO

в форуме Драмы, Мелодрамы, Размер: 746.47 МБ, Здоровье: 0%

Anonymous

0
0|0

55
0

10 фев 2014, 13:06

Anonymous Перейти к последнему сообщению

В этой теме нет новых непрочитанных сообщений. Скачать торрент Проверен 1408 / 1408 (2007) BDRip 1080p | Режиссерская версия / Director's cut

в форуме 720p | 1080p, Размер: 7.91 ГБ, Здоровье: 100%

Anonymous

0
49|7

58
90

09 окт 2014, 16:28

Anonymous Перейти к последнему сообщению

В этой теме нет новых непрочитанных сообщений. Скачать торрент Проверен 1408 / 1408 (2007) BDRip 720p | Режиссерская версия

в форуме 720p | 1080p, Размер: 3.84 ГБ, Здоровье: 100%

Anonymous

0
44|39

44
58

09 окт 2014, 16:25

Anonymous Перейти к последнему сообщению

В этой теме нет новых непрочитанных сообщений. Скачать торрент Человек-волк / The Wolfman (Джо Джонстон / Joe Johnston) [2010 г., ужасы, триллер, драма, BDRip-AVC] [Театральная версия / Theatrical cut] Dub

в форуме Ужасы, Размер: 2.2 ГБ, Здоровье: 0%

Anonymous

0
0|0

120
0

17 май 2014, 20:07

Anonymous Перейти к последнему сообщению

В этой теме нет новых непрочитанных сообщений. Скачать торрент Оборотни / Cursed (Уэс Крэйвен / Wes Craven) [2005 г., Ужасы, триллер, HDRip] (Театральная версия / Theatrical Cut) Dub

в форуме Ужасы, Размер: 745.79 МБ, Здоровье: 0%

Anonymous

0
0|0

25
0

25 апр 2014, 08:53

Anonymous Перейти к последнему сообщению



Сейчас этот форум просматривают: нет зарегистрированных пользователей и гости: 1


Вы не можете начинать темы
Вы не можете отвечать на сообщения
Вы не можете редактировать свои сообщения
Вы не можете удалять свои сообщения
Вы не можете добавлять вложения

Перейти:  

!ВНИМАНИЕ!
 Ресурс не предоставляет электронные версии произведений, а занимается лишь коллекционированием и каталогизацией ссылок, присылаемых и публикуемых на форуме нашими читателями. Если вы являетесь правообладателем какого-либо представленного материала и не желаете чтобы ссылка на него находилась в нашем каталоге, свяжитесь с нами и мы незамедлительно удалим её. Файлы для обмена на трекере предоставлены пользователями сайта, и администрация не несёт ответственности за их содержание. Просьба не заливать файлы, защищенные авторскими правами, а также файлы нелегального содержания!