На всех торрентах на трекере установлена скидка на скачивание в размере 100 процентов(а).
 Возможность скачивания торрента НЕ зависит от ограничений при низком ратио, низком аплоаде, требуемом ратио или требуемом аплоаде.


Начать новую тему Ответить на тему
Статистика раздачи
Размер: 1.57 ГБ | Добавлен: 01 апр 2014, 09:35 | Скачали: 0
Сидеров: 0  [0 байт/сек]    Личеров: 0  [0 байт/сек]
Пред. тема | След. тема 

Автор
Сообщение

СообщениеДобавлено: 01 апр 2014, 09:35 

Пираньи / Piranha


Страна: США
Жанр: ужасы, комедия
Год выпуска: 2010
Продолжительность: 01:28:21

Перевод 1: Профессиональный (дублированный)
Перевод 2: Профессиональный (дублированный) РЕН-ТВ отдельным файлом
Cубтитры: нет
Режиссер: Александр Ажа / Alexandre Aja

В ролях: Ричард Дрейфусс, Винг Рэймс, Элизабет Шу, Кристофер Ллойд, Элай Рот, Джерри О`Коннелл, Коуди Лонго, Стивен Р. МакКуин, Джессика Зор, Келли Брук...

Описание: 20 тысяч подростков курортного городка у озера Виктория готовятся к празднованию ежегодного праздника начала лета. Но ночное землетрясение высвобождает сотни тысяч доисторических пираний прямо накануне торжества. Очаровательная шериф, ее подчиненные-полицейские и доктор Горден Рэйбэнкс решают сделать все, чтобы веселый праздник молодежи в озере не превратился в кровавое пиршество. Но пираньи уже знают ответ, кто победит: молодость или многовековая жажда крови…

Сэмпл: http://multi-up.com/951737

Доп. информация: За исходник звука с переводом РЕН-ТВ спасибо Slim9174.

Качество видео: HDRip
Формат видео: AVI

Видео: 720x304 (2.37:1), 23.976 fps, XviD build 50 ~1900 kbps avg, 0.36 bit/pixel
Аудио 1: 48 kHz, AC3 Dolby Digital, 3/2 (L,C,R,l,r) + LFE ch, ~448 kbps
Аудио 2: 48 kHz, AC3 Dolby Digital, 1/0 (C) ch, ~192 kbps РЕН-ТВ отдельным файлом



MediaInfo
General
Complete name : D:\Piranha\Piranha.avi
Format : AVI
Format/Info : Audio Video Interleave
File size : 1.46 GiB
Duration : 1h 28mn
Overall bit rate : 2 358 Kbps
Writing application : VirtualDubMod 1.5.10.2 (build 2540/release)
Writing library : VirtualDubMod build 2540/release

Video
ID : 0
Format : MPEG-4 Visual
Format profile : Advanced Simple@L5
Format settings, BVOP : 1
Format settings, QPel : No
Format settings, GMC : No warppoints
Format settings, Matrix : Custom
Codec ID : XVID
Codec ID/Hint : XviD
Duration : 1h 28mn
Bit rate : 1 901 Kbps
Width : 720 pixels
Height : 304 pixels
Display aspect ratio : 2.35:1
Frame rate : 23.976 fps
Color space : YUV
Chroma subsampling : 4:2:0
Bit depth : 8 bits
Scan type : Progressive
Compression mode : Lossy
Bits/(Pixel*Frame) : 0.362
Stream size : 1.17 GiB (81%)
Writing library : XviD 1.2.1 (UTC 2008-12-04)

Audio
ID : 1
Format : AC-3
Format/Info : Audio Coding 3
Mode extension : CM (complete main)
Format settings, Endianness : Big
Codec ID : 2000
Duration : 1h 28mn
Bit rate mode : Constant
Bit rate : 448 Kbps
Channel count : 6 channels
Channel positions : Front: L C R, Side: L R, LFE
Sampling rate : 48.0 KHz
Bit depth : 16 bits
Compression mode : Lossy
Stream size : 283 MiB (19%)
Alignment : Split accross interleaves
Interleave, duration : 42 ms (1.00 video frame)
Interleave, preload duration : 500 ms
Скриншоты
загрузка...
Правила, инструкции, FAQ!!!
Торрент  Добавлен [01 апр 2014, 09:35] Скачать торрент
Скачать торрент
[ Размер 16.4 КБ / Просмотров 3 ]

Статус  
 
Размер  1.57 ГБ
Приватный: Нет (DHT включён)
.torrent скачан  0
Как залить торрент? | Как скачать Torrent? | Как смотреть и слушать онлайн?  


     Отправить личное сообщение
   
Страница 1 из 1
Показать сообщения за:  Поле сортировки  
Начать новую тему Ответить на тему

   Похожие торренты   Автор   Ответы   Просмотры   Последнее сообщение 
В этой теме нет новых непрочитанных сообщений. Скачать торрент Проверен OST - Пираньи 3D / Piranha 3D (2010) MP3

в форуме Зарубежная музыка (сборники), Размер: 142.95 МБ, Здоровье: 100%

Гость

0
9|2

21
12

11 ноя 2015, 22:55

Гость Перейти к последнему сообщению

В этой теме нет новых непрочитанных сообщений. Скачать торрент Кровавая жатва / Haute tension (Александр Ажа / Alexandre Aja) [2003 г., ужасы, триллер, HDRip-AVC]

в форуме Ужасы, Размер: 1.45 ГБ, Здоровье: 0%

Anonymous

0
0|0

26
0

25 апр 2014, 08:54

Anonymous Перейти к последнему сообщению

В этой теме нет новых непрочитанных сообщений. Скачать торрент Зеркала / Mirrors (Александр Ажа / Alexandre Aja) [2008, США, Румыния, Германия, Испания, Франция, ужасы, триллер, детектив, BDRip] [UNRATED] Dub

в форуме Ужасы, Размер: 1.45 ГБ, Здоровье: 0%

Anonymous

0
0|0

41
0

04 фев 2014, 21:26

Anonymous Перейти к последнему сообщению

В этой теме нет новых непрочитанных сообщений. Скачать торрент Проверен Астерикс: Земля Богов 3Д / Astérix: Le domaine des dieux 3D (Луис Клиши / Louis Clichy, Александр Астье / Alexandre Astier) [2014, Франция, мультфильм, приключения, фэнтези, комедия, Blu-ray Disc 1080p] BD3D

в форуме 3D Мультфильмы, Размер: 19.99 ГБ, Здоровье: 0%

Anonymous

0
0|0

3
0

07 сен 2016, 17:37

Anonymous Перейти к последнему сообщению

В этой теме нет новых непрочитанных сообщений. Скачать торрент Проверен Астерикс: Земля Богов 3Д / Astérix: Le domaine des dieux 3D (Луис Клиши / Louis Clichy, Александр Астье / Alexandre Astier) [2014, Франция, мультфильм, приключения, фэнтези, комедия, Blu-ray Disc (Custom) 1080p] BD3D [FRA Transfer]

в форуме 3D Мультфильмы, Размер: 45.46 ГБ, Здоровье: 0%

Anonymous

0
0|0

3
0

07 сен 2016, 18:07

Anonymous Перейти к последнему сообщению



Сейчас этот форум просматривают: нет зарегистрированных пользователей и гости: 1


Вы не можете начинать темы
Вы не можете отвечать на сообщения
Вы не можете редактировать свои сообщения
Вы не можете удалять свои сообщения
Вы не можете добавлять вложения

Перейти:  

!ВНИМАНИЕ!
 Ресурс не предоставляет электронные версии произведений, а занимается лишь коллекционированием и каталогизацией ссылок, присылаемых и публикуемых на форуме нашими читателями. Если вы являетесь правообладателем какого-либо представленного материала и не желаете чтобы ссылка на него находилась в нашем каталоге, свяжитесь с нами и мы незамедлительно удалим её. Файлы для обмена на трекере предоставлены пользователями сайта, и администрация не несёт ответственности за их содержание. Просьба не заливать файлы, защищенные авторскими правами, а также файлы нелегального содержания!