На всех торрентах на трекере установлена скидка на скачивание в размере 100 процентов(а).
 Возможность скачивания торрента НЕ зависит от ограничений при низком ратио, низком аплоаде, требуемом ратио или требуемом аплоаде.


Начать новую тему Ответить на тему
Статистика раздачи
Размер: 1.93 ГБ | Добавлен: 27 мар 2014, 10:34 | Скачали: 0
Сидеров: 0  [0 байт/сек]    Личеров: 0  [0 байт/сек]
Пред. тема | След. тема 

Автор
Сообщение

СообщениеДобавлено: 27 мар 2014, 10:34 

Название: Дом призраков
Оригинальное название: Haunted / Dark House
Год выхода: 2014
Жанр: ужасы, триллер
Режиссер: Виктор Сальва

В ролях: Люк Клейнтенк, Энтони Рей Перез, Алекс МакКенна, Тобин Белл, Лейси Анзелк

О фильме: «Что было бы, если призраки были реальны...»
Вся жизнь Ника Ди Санто похожа на сплошной кошмар. Еще в детстве он обнаружил, что он обладает особым даром, ему постоянно приходят непонятные видения. Его мать сошла с ума и находится в психиатрической лечебнице. Но оказывается, что его отец, которого Ник считал мертвым, живее всех живых. Именно он поможет разобраться сыну с его даром. К тому же Ник узнает, что он - владелец старинного загородного дома. Но за права на эту недвижимость придется побороться...



Страна: США
Студия: Charles Agron Productions
Продолжительность: 01:42:32
Перевод: Любительское (одноголосое) datynet


Кодек: h.264
Качество: BDRip-AVC
Видео: AVC, 1024 x 424, ~2003 kbps
Звук: Русский: AC-3, 2 ch, 192 kbps / Английский: AC-3, 6 ch, 448 kbps
Субтитры: Русский Михаил Васильев

Семпл

Общее
Уникальный идентификатор : 168348648403719580577546155723716462494 (0x7EA6C532C2870C1E037BA147C20E879E)
Полное имя : H:Дом призраков Haunted Dark House (2014) BDRip-AVCDark.House.2014.BDRip-AVC.mkv
Формат : Matroska
Версия формата : Version 2
Размер файла : 1,93 Гбайт
Продолжительность : 1 ч. 42 м.
Режим общего битрейта : Переменный
Общий поток : 2697 Кбит/сек
Программа кодирования : Lavf51.12.1
Библиотека кодирования : Lavf51.12.1

Видео
Идентификатор : 1
Формат : AVC
Формат/Информация : Advanced Video Codec
Профиль формата : Baseline@L3.1
Параметр CABAC формата : Нет
Параметр ReFrames формата : 1 кадр
Параметр GOP формата : M=1, N=12
Идентификатор кодека : V_MPEG4/ISO/AVC
Продолжительность : 1 ч. 42 м.
Вид битрейта : Переменный
Битрейт : 2003 Кбит/сек
Максимальный битрейт : 3090 Кбит/сек
Ширина : 1024 пикселя
Высота : 424 пикселя
Соотношение сторон : 2,40:1
Режим частоты кадров : Постоянный
Частота кадров : 23,976 кадра/сек
Частота кадров в оригинале : 24,000 кадра/сек
Цветовое пространство : YUV
Субдискретизация насыщенности : 4:2:0
Битовая глубина : 8 бит
Тип развёртки : Прогрессивная
Бит/(Пиксели*Кадры) : 0.192
Размер потока : 1,44 Гбайт (74%)
Default : Да
Forced : Нет

Аудио #1
Идентификатор : 2
Формат : AC-3
Формат/Информация : Audio Coding 3
Расширение режима : CM (complete main)
Параметр Endianness формата : Big
Идентификатор кодека : A_AC3
Продолжительность : 1 ч. 42 м.
Вид битрейта : Постоянный
Битрейт : 192 Кбит/сек
Каналы : 2 канала
Расположение каналов : Front: L R
Частота : 44,1 КГц
Битовая глубина : 16 бит
Метод сжатия : С потерями
Размер потока : 141 Мбайт (7%)
Язык : Russian
Default : Да
Forced : Нет

Аудио #2
Идентификатор : 4
Формат : AC-3
Формат/Информация : Audio Coding 3
Расширение режима : CM (complete main)
Параметр Endianness формата : Big
Идентификатор кодека : A_AC3
Продолжительность : 1 ч. 42 м.
Вид битрейта : Постоянный
Битрейт : 448 Кбит/сек
Каналы : 6 каналов
Расположение каналов : Front: L C R, Side: L R, LFE
Частота : 48,0 КГц
Битовая глубина : 16 бит
Метод сжатия : С потерями
Размер потока : 329 Мбайт (17%)
Язык : English
Default : Да
Forced : Нет

Текст
Идентификатор : 3
Формат : UTF-8
Идентификатор кодека : S_TEXT/UTF8
Идентификатор кодека/Информация : UTF-8 Plain Text
Язык : Russian
Default : Да
Forced : Нет

загрузка...
Правила, инструкции, FAQ!!!
Торрент  Добавлен [27 мар 2014, 10:34] Скачать торрент
Скачать торрент
[ Размер 20.15 КБ / Просмотров 4 ]

Статус  
 
Размер  1.93 ГБ
Приватный: Нет (DHT включён)
.torrent скачан  0
Как залить торрент? | Как скачать Torrent? | Как смотреть и слушать онлайн?  


     Отправить личное сообщение
   
Страница 1 из 1
Показать сообщения за:  Поле сортировки  
Начать новую тему Ответить на тему

   Похожие торренты   Автор   Ответы   Просмотры   Последнее сообщение 
В этой теме нет новых непрочитанных сообщений. Скачать торрент Проверен Дом с паранормальными явлениями 2 / A Haunted House 2 (2014) BDRip 720p | Чистый звук

в форуме 720p | 1080p, Размер: 2.44 ГБ, Здоровье: 100%

Anonymous

0
154|7

33
4346

03 авг 2014, 08:58

Anonymous Перейти к последнему сообщению

В этой теме нет новых непрочитанных сообщений. Скачать торрент Проверен Дом с паранормальными явлениями 2 / A Haunted House 2 (2014) WEBRip | Чистый звук

в форуме Ужасы, Размер: 1.37 ГБ, Здоровье: 0%

Anonymous

0
0|0

47
0

05 июл 2014, 22:35

Anonymous Перейти к последнему сообщению

В этой теме нет новых непрочитанных сообщений. Скачать торрент Проверен Легенды о призраках 6: Темные желания / Haunted Legends 6: The Dark Wishes CE (2015) РС

в форуме Приключения и квесты|я ищу, Размер: 891.65 МБ, Здоровье: 100%

Anonymous

0
1080|314

61
1605

17 май 2015, 13:42

Anonymous Перейти к последнему сообщению

В этой теме нет новых непрочитанных сообщений. Скачать торрент Проверен (garage rock) [LP] [24/96] The Haunted - The Haunted - 1967, FLAC (tracks)

в форуме Зарубежный рок (оцифровки), Размер: 640.71 МБ, Здоровье: 0%

Anonymous

0
0|0

3
0

25 авг 2016, 10:11

Anonymous Перейти к последнему сообщению

В этой теме нет новых непрочитанных сообщений. Скачать торрент Проверен (Dark/Death/Heavy Metal) Agony Lords - A Tomb For The Haunted - 2012 [Limited Edition], FLAC (image+.cue), lossless

в форуме Heavy, Power, Progressive (Metal), Размер: 550.57 МБ, Здоровье: 0%

Anonymous

0
0|0

0
0

10 окт 2016, 23:53

Anonymous Перейти к последнему сообщению



Сейчас этот форум просматривают: нет зарегистрированных пользователей и гости: 1


Вы не можете начинать темы
Вы не можете отвечать на сообщения
Вы не можете редактировать свои сообщения
Вы не можете удалять свои сообщения
Вы не можете добавлять вложения

Перейти:  

!ВНИМАНИЕ!
 Ресурс не предоставляет электронные версии произведений, а занимается лишь коллекционированием и каталогизацией ссылок, присылаемых и публикуемых на форуме нашими читателями. Если вы являетесь правообладателем какого-либо представленного материала и не желаете чтобы ссылка на него находилась в нашем каталоге, свяжитесь с нами и мы незамедлительно удалим её. Файлы для обмена на трекере предоставлены пользователями сайта, и администрация не несёт ответственности за их содержание. Просьба не заливать файлы, защищенные авторскими правами, а также файлы нелегального содержания!