На всех торрентах на трекере установлена скидка на скачивание в размере 100 процентов(а).
 Возможность скачивания торрента НЕ зависит от ограничений при низком ратио, низком аплоаде, требуемом ратио или требуемом аплоаде.


Начать новую тему Ответить на тему
Статистика раздачи
Размер: 2.18 ГБ | Добавлен: 19 фев 2014, 09:55 | Скачали: 1
Сидеров: 0  [0 байт/сек]    Личеров: 1  [0 байт/сек]
Пред. тема | След. тема 

Автор
Сообщение

СообщениеДобавлено: 19 фев 2014, 09:55 

Темные уровни / Темный этаж / Dark Floors

Страна: Финляндия, Исландия
Жанр: Ужасы
Год выпуска: 2008
Продолжительность: 01:21:44.959 (122624 frames)

Перевод: Профессиональный (дублированный)


Cубтитры: русские

Режиссер: Петер Риски / Piter Riski

В ролях: Lordi, Кита, Амен, Ox, Ава, Скай Беннетт, Ной Хантли

Описание: Сара - маленькая девочка, страдающая аутизмом. Ее отец, не видя никаких улучшений в здоровье дочери, решает забрать девочку из больницы. Однако покинуть стены госпиталя им не суждено - неожиданно лифт, в котором они спускаются к выходу, ломается, и Сара вместе с отцом и другими пассажирами оказывается в ловушке. Но это только начало кошмара. Когда двери лифта откроются, их ждет настоящий ужас - существа из потустороннего мира, жертвами которых уже стали множество пациентов больницы, не пощадят никого. Единственным человеком, способным спасти несчастных, оказывается Сара...



СЭМПЛ

Качество видео: BDRip(Исх.Blu-Ray)
Формат видео: AVI

Video: 720x304 (2.37:1), 25 fps, XviD MPEG-4 ~2056 kbps avg, 0.38 bit/pixel
Audio #1: 48 kHz, AC3 Dolby Digital, 3/2 (L,C,R,l,r) + LFE ch, ~384 kbps Дубляж
Audio #2: 48 kHz, AC3 Dolby Digital, 3/2 (L,C,R,l,r) + LFE ch, ~448 kbps Многоголосый
Audio #3: 48 kHz, AC3 Dolby Digital, 3/2 (L,C,R,l,r) + LFE ch, ~448 kbps Английский
Audio #4: 48 kHz, AC3 Dolby Digital, 3/2 (L,C,R,l,r) + LFE ch, ~448 kbps Немецкий
Cубтитры : русские , английские - отдельно
AviInfo
File: Dark Floors.chopper887.avi
Filesize: 2227.97 Mb ( 2 336 194 560 bytes )
Play length: 01:21:44.959 (122624 frames)
Subtitles: Eng, Rus (SubRip format)
Video: 720x304 (2.37:1), 25 fps, XviD MPEG-4 ~2056 kbps avg, 0.38 bit/pixel
Audio #1: 48 kHz, AC3 Dolby Digital, 3/2 (L,C,R,l,r) + LFE ch, ~384 kbps
Audio #2: 48 kHz, AC3 Dolby Digital, 3/2 (L,C,R,l,r) + LFE ch, ~448 kbps
Audio #3: 48 kHz, AC3 Dolby Digital, 3/2 (L,C,R,l,r) + LFE ch, ~448 kbps
Audio #4: 48 kHz, AC3 Dolby Digital, 3/2 (L,C,R,l,r) + LFE ch, ~448 kbps
mediainfo
General
Complete name : F:\Dark Floors.chopper887\Dark Floors.chopper887.avi
Format : AVI
Format/Info : Audio Video Interleave
File size : 2.18 GiB
Duration : 1h 21mn
Overall bit rate : 3 810 Kbps
Writing application : VirtualDubMod 1.5.10.2 (build 2540/release)
Writing library : VirtualDubMod build 2540/release

Video
ID : 0
Format : MPEG-4 Visual
Format profile : Advanced Simple@L5
Format settings, BVOP : Yes
Format settings, QPel : No
Format settings, GMC : No warppoints
Format settings, Matrix : Custom

Muxing mode : Packed bitstream
Codec ID : XVID
Codec ID/Hint : XviD
Duration : 1h 21mn
Bit rate : 2 059 Kbps
Width : 720 pixels
Height : 304 pixels
Display aspect ratio : 2.35:1
Frame rate : 25.000 fps
Color space : YUV
Chroma subsampling : 4:2:0
Bit depth : 8 bits
Scan type : Progressive
Bits/(Pixel*Frame) : 0.376
Stream size : 1.18 GiB (54%)
Writing library : XviD 1.2.1 (UTC 2008-12-04)

Audio #1
ID : 1
Format : AC-3
Format/Info : Audio Coding 3
Mode extension : CM (complete main)
Codec ID : 2000
Duration : 1h 21mn
Bit rate mode : Constant
Bit rate : 384 Kbps
Channel(s) : 6 channels
Channel positions : Front: L C R, Side: L R, LFE
Sampling rate : 48.0 KHz
Stream size : 224 MiB (10%)
Alignment : Split accross interleaves
Interleave, duration : 40 ms (1.00 video frame)
Interleave, preload duration : 500 ms

Audio #2
ID : 2
Format : AC-3
Format/Info : Audio Coding 3
Mode extension : CM (complete main)
Codec ID : 2000
Duration : 1h 21mn
Bit rate mode : Constant
Bit rate : 448 Kbps
Channel(s) : 6 channels
Channel positions : Front: L C R, Side: L R, LFE
Sampling rate : 48.0 KHz
Stream size : 262 MiB (12%)
Alignment : Split accross interleaves
Interleave, duration : 40 ms (1.00 video frame)
Interleave, preload duration : 500 ms

Audio #3
ID : 3
Format : AC-3
Format/Info : Audio Coding 3
Mode extension : CM (complete main)
Codec ID : 2000
Duration : 1h 21mn
Bit rate mode : Constant
Bit rate : 448 Kbps
Channel(s) : 6 channels
Channel positions : Front: L C R, Side: L R, LFE
Sampling rate : 48.0 KHz
Stream size : 262 MiB (12%)
Alignment : Split accross interleaves
Interleave, duration : 40 ms (1.00 video frame)
Interleave, preload duration : 500 ms

Audio #4
ID : 4
Format : AC-3
Format/Info : Audio Coding 3
Mode extension : CM (complete main)
Codec ID : 2000
Duration : 1h 21mn
Bit rate mode : Constant
Bit rate : 448 Kbps
Channel(s) : 6 channels
Channel positions : Front: L C R, Side: L R, LFE
Sampling rate : 48.0 KHz
Stream size : 262 MiB (12%)
Alignment : Split accross interleaves
Interleave, duration : 40 ms (1.00 video frame)
Interleave, preload duration : 500 ms

загрузка...
Правила, инструкции, FAQ!!!
Торрент  Добавлен [19 фев 2014, 09:55] Скачать торрент
Скачать торрент
[ Размер 11.54 КБ / Просмотров 9 ]

Статус  
 
Размер  2.18 ГБ
Приватный: Нет (DHT включён)
.torrent скачан  1
Как залить торрент? | Как скачать Torrent? | Как смотреть и слушать онлайн?  


     Отправить личное сообщение
   
Страница 1 из 1
Показать сообщения за:  Поле сортировки  
Начать новую тему Ответить на тему

   Похожие торренты   Автор   Ответы   Просмотры   Последнее сообщение 
В этой теме нет новых непрочитанных сообщений. Скачать торрент Темные уровни / Dark Floors (Питр Риски) [2008 г., Ужасы, фэнтези, DVDRip]

в форуме Ужасы, Размер: 694.15 МБ, Здоровье: 0%

Anonymous

0
0|0

38
0

02 апр 2014, 08:23

Anonymous Перейти к последнему сообщению

В этой теме нет новых непрочитанных сообщений. Скачать торрент Темный город / Dark Town (Деси Скарпоне / Desi Scarpone) [2004 г., ужасы, DVDRip]

в форуме Ужасы, Размер: 743.48 МБ, Здоровье: 100%

Anonymous

0
110|1

83
2

29 апр 2014, 13:57

Anonymous Перейти к последнему сообщению

В этой теме нет новых непрочитанных сообщений. Скачать торрент Темный рыцарь / The Dark Knight (Кристофер Нолан / Christopher Nolan) [2008, Фантастика, боевик, триллер, криминал, BDRip] Dub

в форуме Фантастика, Фэнтези, Размер: 3.61 ГБ, Здоровье: 100%

Anonymous

0
32|11

80
0

17 фев 2014, 08:05

Anonymous Перейти к последнему сообщению

В этой теме нет новых непрочитанных сообщений. Скачать торрент Темный рыцарь / The Dark Knight (Кристофер Нолан / Christopher Nolan) [2008, США, боевик, приключения, драма, криминал, BDRip-AVC]

в форуме 720p | 1080p, Размер: 6.74 ГБ, Здоровье: 0%

Anonymous

0
0|0

43
0

17 фев 2014, 11:46

Anonymous Перейти к последнему сообщению

В этой теме нет новых непрочитанных сообщений. Скачать торрент Темный рыцарь / The Dark Knight (Кристофер Нолан / Christopher Nolan) [2008, США, Фантастика, боевик, триллер, криминал, BDRip] Dub

в форуме Фантастика, Фэнтези, Размер: 1.46 ГБ, Здоровье: 100%

Anonymous

0
56|19

64
0

13 фев 2014, 11:37

Anonymous Перейти к последнему сообщению



Сейчас этот форум просматривают: нет зарегистрированных пользователей и гости: 1


Вы не можете начинать темы
Вы не можете отвечать на сообщения
Вы не можете редактировать свои сообщения
Вы не можете удалять свои сообщения
Вы не можете добавлять вложения

Перейти:  

!ВНИМАНИЕ!
 Ресурс не предоставляет электронные версии произведений, а занимается лишь коллекционированием и каталогизацией ссылок, присылаемых и публикуемых на форуме нашими читателями. Если вы являетесь правообладателем какого-либо представленного материала и не желаете чтобы ссылка на него находилась в нашем каталоге, свяжитесь с нами и мы незамедлительно удалим её. Файлы для обмена на трекере предоставлены пользователями сайта, и администрация не несёт ответственности за их содержание. Просьба не заливать файлы, защищенные авторскими правами, а также файлы нелегального содержания!