На всех торрентах на трекере установлена скидка на скачивание в размере 100 процентов(а).
 Возможность скачивания торрента НЕ зависит от ограничений при низком ратио, низком аплоаде, требуемом ратио или требуемом аплоаде.


Начать новую тему Ответить на тему
Статистика раздачи
Размер: 745.02 МБ | Добавлен: 17 фев 2014, 08:03 | Скачали: 0
Сидеров: 0  [0 байт/сек]    Личеров: 0  [0 байт/сек]
Пред. тема | След. тема 

Автор
Сообщение

СообщениеДобавлено: 17 фев 2014, 08:03 

Страна: США
Жанр: ужасы
Год выпуска: 2007
Продолжительность: 01:20:45
Перевод: Профессиональный (многоголосый закадровый)
Cубтитры: нет
Оригинальная аудиодорожка: нет
Режиссер: Пол Трэйнор / Paul Traynor

В ролях: Джил МакКинни, Джефф Кристиан, Уэсли Уолкер, Джефф Альба, Бетси Бейкер, Лоурен Риланд, Меган Джонс, Элизабет Оас, Стефани Канту


Описание: Чтобы помочь другу пережить разрыв с девушкой, четверо друзей на Хеллоуин отправляются на природу. Прогулка на лодке, посиделки у костра, мужские разговоры под пивко — что может быть лучше? Тем более на соседней поляне расположились такие красотки! И они явно не против скрасить ночь одиноким парням. Но очень скоро идеальный уик-энд превратится в кошмар из которого уже не вырваться…





Качество видео: DVDRip
Формат видео: AVI
Видео: 640x352 (1.82:1), 25 fps, XviD build 50 ~1154 kbps avg, 0.20 bit/pixel
Аудио: Russian (48 kHz, MPEG Layer 3, 2 ch, ~128.00 kbps avg)
MediaInfo
Общее
Полное имя : F:Witches.Night.2007.avi
Формат : AVI
Формат/Информация : Audio Video Interleave
Размер файла : 745 Мбайт
Продолжительность : 1 ч. 20 м.
Общий поток : 1290 Кбит/сек
Название фильма : Witches.Night.2007
Режиссёр : Modepido
Программа кодирования : VirtualDubMod 1.5.4.1 (build 2178/release)
Правообладатель : Modepido

Видео
Идентификатор : 0
Формат : MPEG-4 Visual
Профиль формата : Advanced Simple@L5
Параметр BVOP формата : 1
Параметр QPel формата : Нет
Параметр GMC формата : Без точки перехода
Параметр матрицы формата : Выборочная
Идентификатор кодека : XVID
Идентификатор кодека/Подсказка : XviD
Продолжительность : 1 ч. 20 м.
Битрейт : 1155 Кбит/сек
Ширина : 640 пикс.
Высота : 352 пикс.
Соотношение сторон : 16:9
Частота кадров : 25,000 кадр/сек
Цветовое пространство : YUV
Подвыборка цветности : 4:2:0
Битовая глубина : 8 бит
Тип развёртки : Прогрессивная
Метод сжатия : С потерями
Бит/(Пиксели*Кадры) : 0.205
Размер потока : 667 Мбайт (90%)
Библиотека кодирования : XviD 1.2.1 (UTC 2008-12-04)

Аудио
Идентификатор : 1
Формат : MPEG Audio
Версия формата : Version 1
Профиль формата : Layer 3
Режим : Joint stereo
Расширение режима : MS Stereo
Идентификатор кодека : 55
Идентификатор кодека/Подсказка : MP3
Продолжительность : 1 ч. 20 м.
Вид битрейта : Постоянный
Битрейт : 128 Кбит/сек
Каналы : 2 канала
Частота : 48,0 КГц
Метод сжатия : С потерями
Размер потока : 73,9 Мбайт (10%)
Выравнивание : Соединение по промежуткам
Продолжительность промежутка : 80 мс. (2,00 видеокадра)
Время предзагрузки промежутка : 504 ms
Библиотека кодирования : LAME3.98r
Настройки программы : -m j -V 4 -q 2 -lowpass 17 -b 128

загрузка...
Правила, инструкции, FAQ!!!
Торрент  Добавлен [17 фев 2014, 08:03] Скачать торрент
Скачать торрент
[ Размер 15.04 КБ / Просмотров 9 ]

Статус  
 
Размер  745.02 МБ
Приватный: Нет (DHT включён)
.torrent скачан  0
Как залить торрент? | Как скачать Torrent? | Как смотреть и слушать онлайн?  


     Отправить личное сообщение
   
Страница 1 из 1
Показать сообщения за:  Поле сортировки  
Начать новую тему Ответить на тему

   Похожие торренты   Автор   Ответы   Просмотры   Последнее сообщение 
В этой теме нет новых непрочитанных сообщений. Скачать торрент Проверен Хроники ведьм и колдунов / Chronicles of The Witches and Warlocks (2014) PC

в форуме Приключения и квесты|я ищу, Размер: 299.7 МБ, Здоровье: 50%

Anonymous

0
1|2

49
2

24 июн 2014, 22:06

Anonymous Перейти к последнему сообщению

В этой теме нет новых непрочитанных сообщений. Скачать торрент Проверен Ночь над Манхэттеном / Night Falls on Manhattan (1996) DVDRip | P

в форуме Криминал, Размер: 1.45 ГБ, Здоровье: 100%

Гость

0
31|22

218
37

17 июн 2015, 23:11

Гость Перейти к последнему сообщению

В этой теме нет новых непрочитанных сообщений. Скачать торрент Выпускной / Prom Night (Нельсон МакКормик / Nelson McCormick) [2008 г., ужасы, триллер, детектив, DVDRip]

в форуме Ужасы, Размер: 744.08 МБ, Здоровье: 0%

Anonymous

0
0|0

33
0

15 апр 2014, 08:17

Anonymous Перейти к последнему сообщению

В этой теме нет новых непрочитанных сообщений. Скачать торрент 30 дней ночи / 30 Days of Night (Дэвид Слэйд / David Slade) [2007, ужасы, триллер, BDRip] Dub

в форуме Ужасы, Размер: 1.46 ГБ, Здоровье: 0%

Anonymous

0
0|0

53
0

16 фев 2014, 13:09

Anonymous Перейти к последнему сообщению

В этой теме нет новых непрочитанных сообщений. Скачать торрент Проверен Аэлла - Ночные Ведьмы (Aella - Night Witches) официальный клип [2013, Hard Rock, Master HD 1080p]

в форуме Клипы (HD-Video), Размер: 1.57 ГБ, Здоровье: 100%

Anonymous

0
2|1

88
0

28 сен 2014, 00:22

Anonymous Перейти к последнему сообщению



Сейчас этот форум просматривают: нет зарегистрированных пользователей и гости: 1


Вы не можете начинать темы
Вы не можете отвечать на сообщения
Вы не можете редактировать свои сообщения
Вы не можете удалять свои сообщения
Вы не можете добавлять вложения

Перейти:  

!ВНИМАНИЕ!
 Ресурс не предоставляет электронные версии произведений, а занимается лишь коллекционированием и каталогизацией ссылок, присылаемых и публикуемых на форуме нашими читателями. Если вы являетесь правообладателем какого-либо представленного материала и не желаете чтобы ссылка на него находилась в нашем каталоге, свяжитесь с нами и мы незамедлительно удалим её. Файлы для обмена на трекере предоставлены пользователями сайта, и администрация не несёт ответственности за их содержание. Просьба не заливать файлы, защищенные авторскими правами, а также файлы нелегального содержания!