На всех торрентах на трекере установлена скидка на скачивание в размере 100 процентов(а).
 Возможность скачивания торрента НЕ зависит от ограничений при низком ратио, низком аплоаде, требуемом ратио или требуемом аплоаде.


Начать новую тему Ответить на тему
Статистика раздачи
Размер: 1.47 ГБ | Добавлен: 17 фев 2014, 08:03 | Скачали: 0
Сидеров: 0  [0 байт/сек]    Личеров: 0  [0 байт/сек]
Пред. тема | След. тема 

Автор
Сообщение

СообщениеДобавлено: 17 фев 2014, 08:03 

WAZ: Камера пыток / W Delta Z

Страна: Великобритания
Жанр: ужасы, триллер, драма, криминал
Год выпуска: 2007
Продолжительность: 01:43:57
Перевод: Профессиональный (дублированный)
Cубтитры: русские, английские (Отдельно)

Оригинальная аудиодорожка: английский
Режиссер: Том Шенклэнд / Tom Shankland

В ролях: Стеллан Скарсгард, Сельма Блэр, Мелисса Джордж, Эшли Уолтерс, Джон Шариан, Салли Хоукинс, Том Харди, Барбара Эдэйр, Лорен Худ, Шила Керр, Алибе Парсонс, Пол Кей


Описание: Детектив Эдди Арго и его напарница Хелен Уэсткотт расследуют цепь жестоких убийств, жертвами которых становятся члены одной из мелких преступных группировок города. Рассчетливый убийца постепенно подводит детектива к расплате за ошибки, допущенные в далеком прошлом, и задает ему главный вопрос - «Сможешь ли ты убить того, кого сильно любишь, чтобы спасти свою собственную жизнь?»...


Качество видео: HDRip
Формат видео: AVI

Видео: 720x304 (2.37:1), 23.976 fps, XviD build 50 ~1237 kbps avg, 0.24 bit/pixel
Аудио 1: 48 kHz, AC3 Dolby Digital, 3/2 (L,C,R,l,r) + LFE ch, ~384 kbps
Аудио 2: 48 kHz, AC3 Dolby Digital, 3/2 (L,C,R,l,r) + LFE ch, ~384 kbps

Mediainfo
F:\Фильмы\W.Delta.Z.2007.HDRip\W.Delta.Z.2007.HDRip.avi
General
Complete name : F:\Фильмы\W.Delta.Z.2007.HDRip\W.Delta.Z.2007.HDRip.avi
Format : AVI
Format/Info : Audio Video Interleave
File size : 1.47 GiB
Duration : 1h 43mn
Overall bit rate : 2 021 Kbps
Writing application : VirtualDubModRus 1.5.10.2 (build 2542/release)
Writing library : VirtualDubMod build 2542/release
Video #0
ID : 0
Format : MPEG-4 Visual
Format profile : Advanced Simple@L5
Format settings, BVOP : Yes
Format settings, QPel : No
Format settings, GMC : No warppoints
Format settings, Matrix : Custom
Codec ID : XVID
Codec ID/Hint : XviD
Duration : 1h 43mn
Bit rate : 1 239 Kbps
Width : 720 pixels
Height : 304 pixels
Display aspect ratio : 2.35:1
Frame rate : 23.976 fps
Color space : YUV
Chroma subsampling : 4:2:0
Bit depth : 8 bits
Scan type : Progressive
Compression mode : Lossy
Bits/(Pixel*Frame) : 0.236
Stream size : 921 MiB (61%)
Writing library : XviD 1.2.1 (UTC 2008-12-04)
Audio #1
ID : 1
Format : AC-3
Format/Info : Audio Coding 3
Mode extension : CM (complete main)
Codec ID : 2000
Duration : 1h 43mn
Bit rate mode : Constant
Bit rate : 384 Kbps
Channel(s) : 6 channels
Channel positions : Front: L C R, Side: L R, LFE
Sampling rate : 48.0 KHz
Bit depth : 16 bits
Compression mode : Lossy
Stream size : 286 MiB (19%)
Alignment : Split accross interleaves
Interleave, duration : 42 ms (1.00 video frame)
Interleave, preload duration : 500 ms
Audio #2
ID : 2
Format : AC-3
Format/Info : Audio Coding 3
Mode extension : CM (complete main)
Codec ID : 2000
Duration : 1h 43mn
Bit rate mode : Constant
Bit rate : 384 Kbps
Channel(s) : 6 channels
Channel positions : Front: L C R, Side: L R, LFE
Sampling rate : 48.0 KHz
Bit depth : 16 bits
Compression mode : Lossy
Stream size : 286 MiB (19%)
Alignment : Split accross interleaves
Interleave, duration : 42 ms (1.00 video frame)
Interleave, preload duration : 500 ms
Скриншоты
загрузка...
Правила, инструкции, FAQ!!!
Торрент  Добавлен [17 фев 2014, 08:03] Скачать торрент
Скачать торрент
[ Размер 15.32 КБ / Просмотров 12 ]

Статус  
 
Размер  1.47 ГБ
Приватный: Нет (DHT включён)
.torrent скачан  0
Как залить торрент? | Как скачать Torrent? | Как смотреть и слушать онлайн?  


     Отправить личное сообщение
   
Страница 1 из 1
Показать сообщения за:  Поле сортировки  
Начать новую тему Ответить на тему

   Похожие торренты   Автор   Ответы   Просмотры   Последнее сообщение 
В этой теме нет новых непрочитанных сообщений. Скачать торрент Прикуп / The Take (Дэвид Друри / David Drury) [2009, Великобритания, криминал, драма, триллер, HDRip] VO

в форуме Криминал, Размер: 2.17 ГБ, Здоровье: 100%

Anonymous

0
30|10

68
0

19 фев 2014, 11:41

Anonymous Перейти к последнему сообщению

В этой теме нет новых непрочитанных сообщений. Скачать торрент Проверен [iPad] Из пекла / Out of the Furnace (Скотт Купер / Scott Cooper ) [2013, США, Великобритания, триллер, драма, криминал, HDRip, SD (576p)] DVO + Original + sub (eng)

в форуме Фильмы для iPod, iPhone, iPad, Размер: 1.99 ГБ, Здоровье: 100%

Гость

0
21|7

67
0

18 май 2015, 10:54

Гость Перейти к последнему сообщению

В этой теме нет новых непрочитанных сообщений. Скачать торрент Проверен [iPad] Советник / The Counselor (Ридли Скотт / Ridley Scott ) [2013, США, Великобритания, триллер, драма, криминал, HDRip, SD (576p)] DUB + Original + sub (rus, eng)

в форуме Фильмы для iPod, iPhone, iPad, Размер: 2.02 ГБ, Здоровье: 100%

Гость

0
46|15

52
1

18 май 2015, 10:31

Гость Перейти к последнему сообщению

В этой теме нет новых непрочитанных сообщений. Скачать торрент Плетеное дерево / The Wicker Tree (Робин Харди / Robin Hardy) [2010, Великобритания, Ужасы, триллер, драма, детектив, HDRip] DVO + Original (eng)

в форуме Ужасы, Размер: 1.37 ГБ, Здоровье: 0%

Anonymous

0
0|0

70
0

19 фев 2014, 11:43

Anonymous Перейти к последнему сообщению

В этой теме нет новых непрочитанных сообщений. Скачать торрент Пограничный городок / Город на границе / Bordertown (Грегори Нава / Gregory Nava) [2006, США, Великобритания, триллер, драма, криминал, HDRip] MVO + Sub rus, eng + original eng

в форуме Триллеры, Размер: 2.18 ГБ, Здоровье: ???%

Anonymous

0
0|1

82
0

06 фев 2014, 11:42

Anonymous Перейти к последнему сообщению



Сейчас этот форум просматривают: нет зарегистрированных пользователей и гости: 3


Вы не можете начинать темы
Вы не можете отвечать на сообщения
Вы не можете редактировать свои сообщения
Вы не можете удалять свои сообщения
Вы не можете добавлять вложения

Перейти:  

!ВНИМАНИЕ!
 Ресурс не предоставляет электронные версии произведений, а занимается лишь коллекционированием и каталогизацией ссылок, присылаемых и публикуемых на форуме нашими читателями. Если вы являетесь правообладателем какого-либо представленного материала и не желаете чтобы ссылка на него находилась в нашем каталоге, свяжитесь с нами и мы незамедлительно удалим её. Файлы для обмена на трекере предоставлены пользователями сайта, и администрация не несёт ответственности за их содержание. Просьба не заливать файлы, защищенные авторскими правами, а также файлы нелегального содержания!