На всех торрентах на трекере установлена скидка на скачивание в размере 100 процентов(а).
 Возможность скачивания торрента НЕ зависит от ограничений при низком ратио, низком аплоаде, требуемом ратио или требуемом аплоаде.


Начать новую тему Ответить на тему
Статистика раздачи
Размер: 1.49 ГБ | Добавлен: 14 фев 2014, 07:46 | Скачали: 0
Сидеров: 0  [0 байт/сек]    Личеров: 0  [0 байт/сек]
Пред. тема | След. тема 

Автор
Сообщение

СообщениеДобавлено: 14 фев 2014, 07:46 

Гробница / The Shrine
«Once you find it, they won't let you leave.»
Страна: Канада
Жанр: ужасы
Год выпуска: 2010
Продолжительность: 01:20:37
Перевод: Одноголосый закадровый [den904 по переводу Mokum и AgnusDei]

Cубтитры: нет
Режиссер: Джон Наутц / John Nauts
В ролях: Синди Сэмпсон, Аарон Эшмор, Бен Льюис, Меган Хэфферн, Моника Будайски, Паулино Нюнс, Лаура ДеКартере, Коннор Стэнхоуп, Тревор Мэтьюз, Даниел Мандич
Описание: В центре событий группа молодых журналистов изучающих кровавый культ, у которого до сих пор в чести традиция человеческих жертвоприношений. Не сложно догадаться, что новыми жертвами культа станут настырные молодые люди.




SAMPLE

Качество видео: HDRip
Исходник: BDRip 1080p
Формат видео: AVI

Видео: Xvid, 720x400, 16/9, 25 fps, 2 183 Kbps, 0.30 bit/pixel
Аудио: 48 kHz, AC3 Dolby Digital, 3/2 (L,C,R,l,r) + LFE ch, ~448.00 kbps avg
MediaInfo
General
Complete name : E:\My torrents\The Shrine.2010.den904.avi
Format : AVI
Format/Info : Audio Video Interleave
File size : 1.49 GiB
Duration : 1h 20mn
Overall bit rate : 2 640 Kbps
Writing application : VirtualDubMod 1.5.10.3 | http://www.virtualdub-fr.org || (build 2550/release)
Writing library : VirtualDubMod build 2550/release

Video
ID : 0
Format : MPEG-4 Visual
Format profile : Advanced Simple@L5
Format settings, BVOP : 2
Format settings, QPel : No
Format settings, GMC : No warppoints
Format settings, Matrix : Custom
Codec ID : XVID
Codec ID/Hint : XviD
Duration : 1h 20mn
Bit rate : 2 183 Kbps
Width : 720 pixels
Height : 400 pixels
Display aspect ratio : 16:9
Frame rate : 25.000 fps
Color space : YUV
Chroma subsampling : 4:2:0
Bit depth : 8 bits
Scan type : Progressive
Compression mode : Lossy
Bits/(Pixel*Frame) : 0.303
Stream size : 1.23 GiB (83%)
Writing library : XviD 64

Audio
ID : 1
Format : AC-3
Format/Info : Audio Coding 3
Mode extension : CM (complete main)
Codec ID : 2000
Duration : 1h 20mn
Bit rate mode : Constant
Bit rate : 448 Kbps
Channel(s) : 6 channels
Channel positions : Front: L C R, Side: L R, LFE
Sampling rate : 48.0 KHz
Bit depth : 16 bits
Compression mode : Lossy
Stream size : 258 MiB (17%)
Alignment : Split accross interleaves
Interleave, duration : 40 ms (1.00 video frame)
Interleave, preload duration : 500 ms

загрузка...
Правила, инструкции, FAQ!!!
Торрент  Добавлен [14 фев 2014, 07:46] Скачать торрент
Скачать торрент
[ Размер 15.47 КБ / Просмотров 7 ]

Статус  
 
Размер  1.49 ГБ
Приватный: Нет (DHT включён)
.torrent скачан  0
Как залить торрент? | Как скачать Torrent? | Как смотреть и слушать онлайн?  


     Отправить личное сообщение
   
Страница 1 из 1
Показать сообщения за:  Поле сортировки  
Начать новую тему Ответить на тему

   Похожие торренты   Автор   Ответы   Просмотры   Последнее сообщение 
В этой теме нет новых непрочитанных сообщений. Скачать торрент Мумия: Гробница Императора Драконов / The Mummy: Tomb of the Dragon Emperor (Роб Коэн / Rob Cohen) [2008, Германия, США, Канада, Боевик, Фэнтези, Приключения, HDRip-AVC] Dub

в форуме Боевики, Размер: 745.26 МБ, Здоровье: 100%

Anonymous

0
18|6

76
0

02 апр 2014, 08:21

Anonymous Перейти к последнему сообщению

В этой теме нет новых непрочитанных сообщений. Скачать торрент Туристас / Turistas (Джон Стокуэлл / John Stockwell) [ 2006 , ужасы, триллер, детектив , HDRip] [Unrated version] Dub + Sub (Rus)

в форуме Ужасы, Размер: 1.46 ГБ, Здоровье: 0%

Anonymous

0
0|0

48
0

12 фев 2014, 08:19

Anonymous Перейти к последнему сообщению

В этой теме нет новых непрочитанных сообщений. Скачать торрент Палата / The Ward (Джон Карпентер / John Carpenter) [2010, США, ужасы, триллер, BDRip]

в форуме Ужасы, Размер: 1.46 ГБ, Здоровье: 0%

Anonymous

0
0|0

44
0

17 фев 2014, 11:47

Anonymous Перейти к последнему сообщению

В этой теме нет новых непрочитанных сообщений. Скачать торрент Проверен Новый мир / New World (Пак Хун Джон/ Park Hoon Jung) [2013, Южная Корея, Триллер, HDRip, 576p] DVO (den904, DeadSno) + Original + rus sub

в форуме Фильмы для iPod, iPhone, iPad, Размер: 2.33 ГБ, Здоровье: 100%

Anonymous

0
3|1

23
0

18 май 2015, 10:37

Anonymous Перейти к последнему сообщению

В этой теме нет новых непрочитанных сообщений. Скачать торрент Проверен Шкатулка проклятия / The Possession (Уле Борнедаль / Ole Bornedal) [2012, США, Канада, ужасы, триллер, HDRip, 480p] Dub + Original + sub (rus, eng)

в форуме Фильмы для iPod, iPhone, iPad, Размер: 1.33 ГБ, Здоровье: 100%

Anonymous

0
5|2

10
0

11 май 2015, 01:29

Anonymous Перейти к последнему сообщению



Сейчас этот форум просматривают: нет зарегистрированных пользователей и гости: 1


Вы не можете начинать темы
Вы не можете отвечать на сообщения
Вы не можете редактировать свои сообщения
Вы не можете удалять свои сообщения
Вы не можете добавлять вложения

Перейти:  

!ВНИМАНИЕ!
 Ресурс не предоставляет электронные версии произведений, а занимается лишь коллекционированием и каталогизацией ссылок, присылаемых и публикуемых на форуме нашими читателями. Если вы являетесь правообладателем какого-либо представленного материала и не желаете чтобы ссылка на него находилась в нашем каталоге, свяжитесь с нами и мы незамедлительно удалим её. Файлы для обмена на трекере предоставлены пользователями сайта, и администрация не несёт ответственности за их содержание. Просьба не заливать файлы, защищенные авторскими правами, а также файлы нелегального содержания!