На всех торрентах на трекере установлена скидка на скачивание в размере 100 процентов(а).
 Возможность скачивания торрента НЕ зависит от ограничений при низком ратио, низком аплоаде, требуемом ратио или требуемом аплоаде.


Начать новую тему Ответить на тему
Статистика раздачи
Размер: 1.44 ГБ | Добавлен: 14 фев 2014, 07:45 | Скачали: 0
Сидеров: 0  [0 байт/сек]    Личеров: 0  [0 байт/сек]
Пред. тема | След. тема 

Автор
Сообщение

СообщениеДобавлено: 14 фев 2014, 07:45 

Страна: США, Канада, Франция
Жанр: Ужасы, триллер
Год выпуска: 2009
Продолжительность: 01:31:22

Перевод: Профессиональный (двухголосый закадровый) |Interfilm|
Cубтитры: нет
Режиссер: Жиль Паке-Бреннер / Gilles Paquet-Brenner

В ролях: Миша Бартон, Камерон Брайт, Дебора Кара Ангер, Паскаль Греггори, Ноам Дженкинс, Юджин Кларк, Дарла Бикум, Марк Клэкстон, Шеннон Джардин, Софи Найт, Тейлор Лесли, Эмили МакЭфи, Джейн Редлион, Роб Рой, Джош Стрейт, Роб Ван Минан, Тим Аллен

Описание: Сэм Валцак, управляющая компании, занимающейся сносом зданий, открывает страшную тайну. Очередной объект под снос оказывается полон мрачных секретов его прежних обитателей — живший здесь убийца замуровывал людей в стены.



Сэмпл: http://sendfile.su/493367

Качество видео: BDRip (Исх. BDRemux)
Формат видео: AVI

Видео: 704x400 (1.76:1), 24 fps, XviD build 64 ~1769 kbps avg, 0.26 bit/pixel
Аудио: 48 kHz, AC3 Dolby Digital, 3/2 (L,C,R,l,r) LFE ch, ~448 kbps
MediaInfo
General
Complete name : C:\Walled.In.avi
Format : AVI
Format/Info : Audio Video Interleave
File size : 1.44 GiB
Duration : 1h 33mn
Overall bit rate : 2 218 Kbps
Writing application : VirtualDubMod 1.5.10.2 (build 2540/release)
Writing library : VirtualDubMod build 2540/release

Video
ID : 0
Format : MPEG-4 Visual
Format profile : Advanced Simple@L5
Format settings, BVOP : Yes
Format settings, QPel : No
Format settings, GMC : No warppoints
Format settings, Matrix : Custom
Codec ID : XVID
Codec ID/Hint : XviD
Duration : 1h 33mn
Bit rate : 1 770 Kbps
Width : 704 pixels
Height : 400 pixels
Display aspect ratio : 16:9
Frame rate : 24.000 fps
Color space : YUV
Chroma subsampling : 4:2:0
Bit depth : 8 bits
Scan type : Progressive
Bits/(Pixel*Frame) : 0.262
Stream size : 1.15 GiB (80%)
Writing library : XviD 64

Audio
ID : 1
Format : AC-3
Format/Info : Audio Coding 3
Mode extension : CM (complete main)
Codec ID : 2000
Duration : 1h 31mn
Bit rate mode : Constant
Bit rate : 448 Kbps
Channel(s) : 6 channels
Channel positions : Front: L C R, Side: L R, LFE
Sampling rate : 48.0 KHz
Bit depth : 16 bits
Stream size : 293 MiB (20%)
Alignment : Split accross interleaves
Interleave, duration : 43 ms (1.02 video frame)
Interleave, preload duration : 500 ms
Скриншоты
загрузка...
Правила, инструкции, FAQ!!!
Торрент  Добавлен [14 фев 2014, 07:45] Скачать торрент
Скачать торрент
[ Размер 14.92 КБ / Просмотров 5 ]

Статус  
 
Размер  1.44 ГБ
Приватный: Нет (DHT включён)
.torrent скачан  0
Как залить торрент? | Как скачать Torrent? | Как смотреть и слушать онлайн?  


     Отправить личное сообщение
   
Страница 1 из 1
Показать сообщения за:  Поле сортировки  
Начать новую тему Ответить на тему

   Похожие торренты   Автор   Ответы   Просмотры   Последнее сообщение 
В этой теме нет новых непрочитанных сообщений. Скачать торрент PЭD 2 / Rеd 2 (Дин Паризо / Dean Parisot) [2013, США, Франция, Канада, боевик, триллер, комедия, криминал, BDRip 720p] Dub

в форуме 720p | 1080p, Размер: 7.07 ГБ, Здоровье: 0%

Anonymous

0
0|0

25
0

25 фев 2014, 22:39

Anonymous Перейти к последнему сообщению

В этой теме нет новых непрочитанных сообщений. Скачать торрент Последний вампир / Blood: The Last Vampire (Крис Наон / Chris Nahon) [2009 г., Гонконг, Франция, Китай, ужасы, фэнтези, боевик, триллер, BDRip-AVC] MVO + Original (Eng) + Sub (Rus, Eng)

в форуме 720p | 1080p, Размер: 2.18 ГБ, Здоровье: 100%

Anonymous

0
5|2

38
0

13 фев 2014, 11:37

Anonymous Перейти к последнему сообщению

В этой теме нет новых непрочитанных сообщений. Скачать торрент Замученный / Измученный / The Tortured (Роберт Либерман / Robert Lieberman) [2010 г., США, Канада, ужасы, триллер, драма, BDRip] MVO (R5) + Original + DVO (НТВ+) + VO (Kerob) + Subs (Rus, Eng)

в форуме Ужасы, Размер: 1.97 ГБ, Здоровье: 0%

Anonymous

0
0|0

34
0

13 фев 2014, 11:39

Anonymous Перейти к последнему сообщению

В этой теме нет новых непрочитанных сообщений. Скачать торрент Зеркала / Mirrors (Александр Ажа / Alexandre Aja) [2008, США, Румыния, Германия, Испания, Франция, ужасы, триллер, детектив, BDRip] [UNRATED] Dub

в форуме Ужасы, Размер: 1.45 ГБ, Здоровье: 0%

Anonymous

0
0|0

41
0

04 фев 2014, 21:26

Anonymous Перейти к последнему сообщению

В этой теме нет новых непрочитанных сообщений. Скачать торрент Проверен The Bestseller - Жиль Николе / Gilles Nicolet - Белый камень / La main blanche [2006, rtf, fb2, rus]

в форуме Зарубежная литература (XX и XXI век), Размер: 1.78 МБ, Здоровье: 0%

Anonymous

0
0|0

0
0

08 сен 2016, 18:41

Anonymous Перейти к последнему сообщению



Сейчас этот форум просматривают: нет зарегистрированных пользователей и гости: 1


Вы не можете начинать темы
Вы не можете отвечать на сообщения
Вы не можете редактировать свои сообщения
Вы не можете удалять свои сообщения
Вы не можете добавлять вложения

Перейти:  

!ВНИМАНИЕ!
 Ресурс не предоставляет электронные версии произведений, а занимается лишь коллекционированием и каталогизацией ссылок, присылаемых и публикуемых на форуме нашими читателями. Если вы являетесь правообладателем какого-либо представленного материала и не желаете чтобы ссылка на него находилась в нашем каталоге, свяжитесь с нами и мы незамедлительно удалим её. Файлы для обмена на трекере предоставлены пользователями сайта, и администрация не несёт ответственности за их содержание. Просьба не заливать файлы, защищенные авторскими правами, а также файлы нелегального содержания!