На всех торрентах на трекере установлена скидка на скачивание в размере 100 процентов(а).
 Возможность скачивания торрента НЕ зависит от ограничений при низком ратио, низком аплоаде, требуемом ратио или требуемом аплоаде.


Начать новую тему Ответить на тему
Статистика раздачи
Размер: 1.45 ГБ | Добавлен: 14 фев 2014, 07:44 | Скачали: 0
Сидеров: 0  [0 байт/сек]    Личеров: 0  [0 байт/сек]
Пред. тема | След. тема 

Автор
Сообщение

СообщениеДобавлено: 14 фев 2014, 07:44 

Страна: США
Жанр: мистика, ужасы, триллер
Год выпуска: 2010
Продолжительность: 01:52:39
Перевод: Профессиональный (полное дублирование)
Cубтитры: нет
Режиссер: Манс Марлинд / Måns Mårlind, Бьёрн Стейн / Björn Stein


В ролях:
Джулианна Мур (Cara Harding), Джонатан Риз Мейерс (David / Adam / Wesley), Джефри ДеМанн (Dr. Harding), Фрэнсис Конрой (Mrs. Bernburg), Натан Кордри (Stephen Harding), Бруклин Пру (Sammy), Брайан Энтони Уилсон (Virgil), Джойс Фьюрринг (Granny Holler Witch), Стивен Ришард (Detective Danton), Чарльз Текман (Monty Hughes), Джон Пикс (Dr. Charles Foster), Майкл Грейвз (Holler Man)


Описание:Мать-одиночка и практикующий психиатр Кара Хардинг ведет тему разоблачения идеи о синдроме раздвоения личности. Но однажды она сталкивается с пациентом, чья болезнь не поддается рациональному объяснению: под личиной обычного человека живет демон, который крадет души мертвых…



Сэмпл


Качество видео:
Формат видео: AVI

Видео: 720x304, 23.976 fps, 1395 Kbps, XviD 64, 0.266 bit/pixel
Аудио: Dolby Digital Audio Russian 5.1 / 48 kHz / 448kbs
MediaInfo
Код:
Код:
General
Complete name                    : \Shelter_2010_Bentley.avi
Format                           : AVI
Format/Info                      : Audio Video Interleave
File size                        : 1.45 GiB
Duration                         : 1h 52mn
Overall bit rate                 : 1 853 Kbps
Writing application              : VirtualDubMod 1.5.10.3 | www.virtualdub-fr.org || (build 2550/release)
Writing library                  : VirtualDubMod build 2550/release

Video
ID                               : 0
Format                           : MPEG-4 Visual
Format profile                   : Advanced Simple@L5
Format settings, BVOP            : 1
Format settings, QPel            : No
Format settings, GMC             : No warppoints
Format settings, Matrix          : Custom
Codec ID                         : XVID
Codec ID/Hint                    : XviD
Duration                         : 1h 52mn
Bit rate                         : 1 395 Kbps
Width                            : 720 pixels
Height                           : 304 pixels
Display aspect ratio             : 2.35:1
Frame rate                       : 23.976 fps
Color space                      : YUV
Chroma subsampling               : 4:2:0
Bit depth                        : 8 bits
Scan type                        : Progressive
Compression mode                 : Lossy
Bits/(Pixel*Frame)               : 0.266
Stream size                      : 1.09 GiB (75%)
Writing library                  : XviD 64

Audio
ID                               : 1
Format                           : AC-3
Format/Info                      : Audio Coding 3
Mode extension                   : CM (complete main)
Codec ID                         : 2000
Duration                         : 1h 52mn
Bit rate mode                    : Constant
Bit rate                         : 448 Kbps
Channel(s)                       : 6 channels
Channel positions                : Front: L C R, Side: L R, LFE
Sampling rate                    : 48.0 KHz
Bit depth                        : 16 bits
Compression mode                 : Lossy
Stream size                      : 360 MiB (24%)
Alignment                        : Split accross interleaves
Interleave, duration             : 42 ms (1.00 video frame)
Interleave, preload duration     : 500 ms

Скриншоты
[center]
загрузка...
Правила, инструкции, FAQ!!!
Торрент  Добавлен [14 фев 2014, 07:44] Скачать торрент
Скачать торрент
[ Размер 15.01 КБ / Просмотров 10 ]

Статус  
 
Размер  1.45 ГБ
Приватный: Нет (DHT включён)
.torrent скачан  0
Как залить торрент? | Как скачать Torrent? | Как смотреть и слушать онлайн?  


     Отправить личное сообщение
   
Страница 1 из 1
Показать сообщения за:  Поле сортировки  
Начать новую тему Ответить на тему

   Похожие торренты   Автор   Ответы   Просмотры   Последнее сообщение 
В этой теме нет новых непрочитанных сообщений. Скачать торрент Вольные стрелки / Snapphanar (Манс Марлинд, Бьёрн Стейн / Måns Mårlind, Björn Stein) [2006 г., исторический, DVDRip] R5 MVO

в форуме Исторические, Размер: 1.37 ГБ, Здоровье: 0%

Anonymous

0
0|0

241
0

17 фев 2014, 08:06

Anonymous Перейти к последнему сообщению

В этой теме нет новых непрочитанных сообщений. Скачать торрент Убежище / Shelter (2010) BDRip 1080p

в форуме 720p | 1080p, Размер: 7.75 ГБ, Здоровье: 0%

Anonymous

0
0|0

24
0

03 фев 2014, 19:20

Anonymous Перейти к последнему сообщению

В этой теме нет новых непрочитанных сообщений. Скачать торрент Проверен [iPad] Сердце Ангела / Angel heart (Алан Паркер / Alan Parker) [1987 г., Мистика, ужасы, триллер, BDRip 720p]

в форуме Фильмы для iPod, iPhone, iPad, Размер: 3.26 ГБ, Здоровье: 100%

Гость

0
12|4

41
0

18 май 2015, 10:49

Гость Перейти к последнему сообщению

В этой теме нет новых непрочитанных сообщений. Скачать торрент Проверен Граница пустоты: Сад грешников в 3Д / Kara no Kyoukai: Fukan Fuukei 3D / The Garden of Sinners 3D (Аоки Эй / Aoki Ei) [2016, Аниме, Триллер, Мистика, Ужасы, BDrip-AVC] Half SideBySide / Горизонтальная анаморфная стереопара

в форуме 3D Мультфильмы, Размер: 2.96 ГБ, Здоровье: 0%

Anonymous

0
0|0

2
0

07 сен 2016, 18:16

Anonymous Перейти к последнему сообщению

В этой теме нет новых непрочитанных сообщений. Скачать торрент Из ада / From Hell (Альберт Хьюз / Albert Hughes, Аллен Хьюз / Allen Hughes) [2001 г., Ужасы, триллер, криминал, мистика, BDRip]

в форуме Ужасы, Размер: 2.51 ГБ, Здоровье: 0%

Anonymous

0
0|0

28
0

25 апр 2014, 08:54

Anonymous Перейти к последнему сообщению



Сейчас этот форум просматривают: нет зарегистрированных пользователей и гости: 1


Вы не можете начинать темы
Вы не можете отвечать на сообщения
Вы не можете редактировать свои сообщения
Вы не можете удалять свои сообщения
Вы не можете добавлять вложения

Перейти:  

!ВНИМАНИЕ!
 Ресурс не предоставляет электронные версии произведений, а занимается лишь коллекционированием и каталогизацией ссылок, присылаемых и публикуемых на форуме нашими читателями. Если вы являетесь правообладателем какого-либо представленного материала и не желаете чтобы ссылка на него находилась в нашем каталоге, свяжитесь с нами и мы незамедлительно удалим её. Файлы для обмена на трекере предоставлены пользователями сайта, и администрация не несёт ответственности за их содержание. Просьба не заливать файлы, защищенные авторскими правами, а также файлы нелегального содержания!