На всех торрентах на трекере установлена скидка на скачивание в размере 100 процентов(а).
 Возможность скачивания торрента НЕ зависит от ограничений при низком ратио, низком аплоаде, требуемом ратио или требуемом аплоаде.


Начать новую тему Ответить на тему
Статистика раздачи
Размер: 732.86 МБ | Добавлен: 12 фев 2014, 11:47 | Скачали: 0
Сидеров: 0  [0 байт/сек]    Личеров: 0  [0 байт/сек]
Пред. тема | След. тема 

Автор
Сообщение

СообщениеДобавлено: 12 фев 2014, 11:47 

Дорога из желтого кирпича / YellowBrickRoad

Страна: США
Жанр: ужасы, триллер
Год выпуска: 2010
Продолжительность: 01:35:47

Перевод: Любительский (одноголосый закадровый) den904
Cубтитры: нет
Режиссер: Джесс Холланд / Jesse Holland, Энди Миттон / Andy Mitton

В ролях: Кэссиди Фриман,Энесса Ремси, Лаура Хейслер, Тара Джордано,Кларк Фриман,Ли Уилкоф, Алекс Дрэйпер, Майкл Лаурино, Сэм Элмори др

Описание: В далеком 1940 году жители одного селения в Нью-Хэмпшире неожиданно побросали свои дома, вещи, одежду и голыми ушли в лес. Поисковая группа нашла часть из них замерзшими, других — жестоко убитыми, остальные пропали без вести.
Уже в наши дни по следам этой легенды-загадки идет другая поисковая группа, чтобы разгадать это происшествие. Герои сталкиваются с кошмаром, ведущим их на грань безумия и кровавого финала….
Этот мистический слэшер повествует о команде исследователей, отправившихся разобраться с таинственной историей исчезновения жителей целого городка более чем полвека назад.

Сэмпл: http://multi-up.com/536826

Качество видео: DVDRip [YellowBrickRoad.2010.DVDRiP.XviD-UNVEiL]
Формат видео: AVI

Видео: XviD, 868 Kbps, 640 х 352 pixels, 25.000 fps
Аудио: MPEG Layer 3, Joint stereo, 192 Kbps, 2 channels, 48.0 KHz
MediaInfo
General
Complete name : D:\torrent\YellowBrickRoad.2010.DVDRip.700MB.avi
Format : AVI
Format/Info : Audio Video Interleave
File size : 733 MiB
Duration : 1h 35mn
Overall bit rate : 1 070 Kbps
Writing application : VirtualDubModRus 1.5.10.2 (build 2542/release)
Writing library : VirtualDubMod build 2542/release

Video
ID : 0
Format : MPEG-4 Visual
Format profile : Advanced Simple@L5
Format settings, BVOP : 2
Format settings, QPel : No
Format settings, GMC : No warppoints
Format settings, Matrix : Default (H.263)
Codec ID : XVID
Codec ID/Hint : XviD
Duration : 1h 35mn
Bit rate : 868 Kbps
Width : 640 pixels
Height : 352 pixels
Display aspect ratio : 16:9
Frame rate : 25.000 fps
Color space : YUV
Chroma subsampling : 4:2:0
Bit depth : 8 bits
Scan type : Progressive
Compression mode : Lossy
Bits/(Pixel*Frame) : 0.154
Stream size : 595 MiB (81%)
Writing library : XviD 1.2.1 (UTC 2008-12-04)

Audio
ID : 1
Format : MPEG Audio
Format version : Version 1
Format profile : Layer 3
Mode : Joint stereo
Codec ID : 55
Codec ID/Hint : MP3
Duration : 1h 35mn
Bit rate mode : Constant
Bit rate : 192 Kbps
Channel(s) : 2 channels
Sampling rate : 48.0 KHz
Compression mode : Lossy
Stream size : 132 MiB (18%)
Alignment : Aligned on interleaves
Interleave, duration : 40 ms (1.00 video frame)
Interleave, preload duration : 504 ms
Скриншот c названием фильма
Скриншоты
загрузка...
Правила, инструкции, FAQ!!!
Торрент  Добавлен [12 фев 2014, 11:47] Скачать торрент
Скачать торрент
[ Размер 14.87 КБ / Просмотров 7 ]

Статус  
 
Размер  732.86 МБ
Приватный: Нет (DHT включён)
.torrent скачан  0
Как залить торрент? | Как скачать Torrent? | Как смотреть и слушать онлайн?  


     Отправить личное сообщение
   
Страница 1 из 1
Показать сообщения за:  Поле сортировки  
Начать новую тему Ответить на тему

   Похожие торренты   Автор   Ответы   Просмотры   Последнее сообщение 
В этой теме нет новых непрочитанных сообщений. Скачать торрент Яношик: Правдивая история / Janosik. Prawdziwa historia (Касия Адамик, Агнешка Холланд / Kasia Adamik, Agnieszka Holland) [2009 г., Мелодрама, драма, военный, DVDRip]

в форуме Драмы, Мелодрамы, Размер: 1.37 ГБ, Здоровье: 100%

Anonymous

0
3|2

45
1

19 апр 2014, 18:48

Anonymous Перейти к последнему сообщению

В этой теме нет новых непрочитанных сообщений. Скачать торрент Проверен Ведьмина гора / Race to Witch Mountain (Энди Фикмен / Andy Fickman) [2009, фантастика, триллер, комедия, приключения, BDRip, 480p] DUB, Original + sub (rus(forced), rus,

в форуме Фильмы для iPod, iPhone, iPad, Размер: 1.22 ГБ, Здоровье: 100%

Гость

0
12|4

31
0

11 май 2015, 01:32

Гость Перейти к последнему сообщению

В этой теме нет новых непрочитанных сообщений. Скачать торрент План игры / The Game Plan (Энди Фикмен / Andy Ficman) [2007, США, Комедия, семейный, спорт, DVDRip] MVO

в форуме Комедии, Размер: 698.14 МБ, Здоровье: 0%

Anonymous

0
0|0

41
0

14 фев 2014, 07:47

Anonymous Перейти к последнему сообщению

В этой теме нет новых непрочитанных сообщений. Скачать торрент Швея / The Seamstress (Джесси Джеймс Миллер / Jesse James Miller) [2009 г., ужасы, триллер, криминал, детектив, HDRip]

в форуме Ужасы, Размер: 703.54 МБ, Здоровье: 0%

Anonymous

0
0|0

91
0

16 апр 2014, 07:51

Anonymous Перейти к последнему сообщению

В этой теме нет новых непрочитанных сообщений. Скачать торрент Снова ты / You Again (Энди Фикмен / Andy Fickman) [2010, США, мелодрама, комедия, BDRip] DUB (лицензия)

в форуме Драмы, Мелодрамы, Размер: 1.46 ГБ, Здоровье: 0%

Anonymous

0
0|0

93
0

06 фев 2014, 11:44

Anonymous Перейти к последнему сообщению



Сейчас этот форум просматривают: нет зарегистрированных пользователей и гости: 1


Вы не можете начинать темы
Вы не можете отвечать на сообщения
Вы не можете редактировать свои сообщения
Вы не можете удалять свои сообщения
Вы не можете добавлять вложения

Перейти:  

!ВНИМАНИЕ!
 Ресурс не предоставляет электронные версии произведений, а занимается лишь коллекционированием и каталогизацией ссылок, присылаемых и публикуемых на форуме нашими читателями. Если вы являетесь правообладателем какого-либо представленного материала и не желаете чтобы ссылка на него находилась в нашем каталоге, свяжитесь с нами и мы незамедлительно удалим её. Файлы для обмена на трекере предоставлены пользователями сайта, и администрация не несёт ответственности за их содержание. Просьба не заливать файлы, защищенные авторскими правами, а также файлы нелегального содержания!