На всех торрентах на трекере установлена скидка на скачивание в размере 100 процентов(а).
 Возможность скачивания торрента НЕ зависит от ограничений при низком ратио, низком аплоаде, требуемом ратио или требуемом аплоаде.


Начать новую тему Ответить на тему
Статистика раздачи
Размер: 745.72 МБ | Добавлен: 10 фев 2014, 13:03 | Скачали: 1
Сидеров: 0  [0 байт/сек]    Личеров: 0  [0 байт/сек]
Пред. тема | След. тема 

Автор
Сообщение

СообщениеДобавлено: 10 фев 2014, 13:03 

Выходы на чердак / Приют кошмаров / Приют ужасов / The Attic Expeditions

Страна: США
Жанр: ужасы, триллер, комедия
Год выпуска: 2001
Продолжительность: 01:39:43
Перевод: Авторский (одноголосый закадровый) Кузнецов
Cубтитры: нет
Оригинальная аудиодорожка: нет
Режиссер: Джерами Кастен / Jeremy Kasten
В ролях: Андрас Джонс, Сет Грин, Джеффри Комбс, Уэнди Роби, Тед Рэйми, Бет Бейтс, Шеннон Харт Клири, Элис Купер, Джерри Хаук, Бренда Джеймс
Описание: Придя в себя после четырехлетнего пребывания в коме, Тревор Блэкберн обнаруживает себя в психиатрической лечебнице строгого режима под руководством доктора Эка. Психиатр рассказывает Тревору, что тот оказался здесь потому, что жестоким образом убил свою невесту Фэйт во время церемонии религиозного культа. Но Тревор ничего не может вспомнить. Доктор Эк собирается возвратить Тревору память, для чего в качестве реабилитационного курса направляет того из лечебницы в странный огромный дом под названием «Дом любви», в котором также находятся некоторые его пациенты. Постепенно к Тревору начинает возвращаться память, но все его воспоминания носят страшные и кошмарные оттенки, в которых переплелись реальность и вымысел…

Качество видео: DVDRip
Формат видео: AVI

Видео: 656x368 (1.78:1), 25 fps, XviD build 64 ~906 kbps avg, 0.15 bit/pixel
Аудио: 48 kHz, MPEG Layer 3, 2 ch, ~128.00 kbps avg
MI
Код:
Код:
Format                                   : AVI
Format/Info                              : Audio Video Interleave
File size                                : 746 MiB
Duration                                 : 1h 39mn
Overall bit rate                         : 1 045 Kbps
Writing application                      : VirtualDubMod 1.5.10.3 | www.virtualdub-fr.org || (build 2550/release)
Writing library                          : VirtualDubMod build 2550/release

Video
ID                                       : 0
Format                                   : MPEG-4 Visual
Format profile                           : Advanced Simple@L5
Format settings, BVOP                    : 2
Format settings, QPel                    : No
Format settings, GMC                     : No warppoints
Format settings, Matrix                  : Custom
Codec ID                                 : XVID
Codec ID/Hint                            : XviD
Duration                                 : 1h 39mn
Bit rate                                 : 907 Kbps
Width                                    : 656 pixels
Height                                   : 368 pixels
Display aspect ratio                     : 16:9
Frame rate                               : 25.000 fps
Color space                              : YUV
Chroma subsampling                       : 4:2:0
Bit depth                                : 8 bits
Scan type                                : Progressive
Compression mode                         : Lossy
Bits/(Pixel*Frame)                       : 0.150
Stream size                              : 647 MiB (87%)
Writing library                          : XviD 64

Audio
ID                                       : 1
Format                                   : MPEG Audio
Format version                           : Version 1
Format profile                           : Layer 3
Codec ID                                 : 55
Codec ID/Hint                            : MP3
Duration                                 : 1h 39mn
Bit rate mode                            : Constant
Bit rate                                 : 128 Kbps
Channel(s)                               : 2 channels
Sampling rate                            : 48.0 KHz
Compression mode                         : Lossy
Stream size                              : 91.4 MiB (12%)
Alignment                                : Aligned on interleaves
Interleave, duration                     : 40 ms (1.00 video frame)
Interleave, preload duration             : 504 ms
Writing library                          : LAME3.99.1

Скриншоты
загрузка...
Правила, инструкции, FAQ!!!
Торрент  Добавлен [10 фев 2014, 13:03] Скачать торрент
Скачать торрент
[ Размер 15.06 КБ / Просмотров 9 ]

Статус  
 
Размер  745.72 МБ
Приватный: Нет (DHT включён)
.torrent скачан  1
Как залить торрент? | Как скачать Torrent? | Как смотреть и слушать онлайн?  


     Отправить личное сообщение
   
Страница 1 из 1
Показать сообщения за:  Поле сортировки  
Начать новую тему Ответить на тему

   Похожие торренты   Автор   Ответы   Просмотры   Последнее сообщение 
В этой теме нет новых непрочитанных сообщений. Скачать торрент Король иллюзий / The Wizard of Gore (Джерами Кастен / Jeremy Kasten) [2007, ужасы, детектив, BDRip]

в форуме Ужасы, Размер: 1.46 ГБ, Здоровье: 0%

Anonymous

0
0|0

34
0

19 апр 2014, 18:51

Anonymous Перейти к последнему сообщению

В этой теме нет новых непрочитанных сообщений. Скачать торрент Приют / The Orphanage / El Orfanato (Хуан Антонио Байона / Juan Antonio Bayona) [2007 г., Ужасы, триллер, драма, детектив, HDRip] Dub

в форуме Ужасы, Размер: 745.22 МБ, Здоровье: 0%

Anonymous

0
0|0

31
0

12 фев 2014, 11:47

Anonymous Перейти к последнему сообщению

В этой теме нет новых непрочитанных сообщений. Скачать торрент Колыбель кошмаров / Cradle of Fear (Алекс Чендон / Alex Chandon) [2001, Великобритания, ужасы, DVDRip]

в форуме Ужасы, Размер: 1.46 ГБ, Здоровье: 100%

Anonymous

0
11|4

44
0

28 апр 2014, 22:41

Anonymous Перейти к последнему сообщению

В этой теме нет новых непрочитанных сообщений. Скачать торрент Проверен Варго Александр - Приют [Джекил,(ЛИ), 2012 г., 256, MP3]

в форуме Российская фантастика, фэнтези, мистика, ужасы, фанфики, Размер: 1.61 ГБ, Здоровье: 0%

Anonymous

0
0|0

0
0

10 сен 2016, 14:55

Anonymous Перейти к последнему сообщению

В этой теме нет новых непрочитанных сообщений. Скачать торрент Проверен Варго Александр - Приют [Джекил,(ЛИ), 2012 г., 96, MP3]

в форуме Российская фантастика, фэнтези, мистика, ужасы, фанфики, Размер: 623.02 МБ, Здоровье: 0%

Anonymous

0
0|0

0
0

10 сен 2016, 13:50

Anonymous Перейти к последнему сообщению



Сейчас этот форум просматривают: нет зарегистрированных пользователей и гости: 1


Вы не можете начинать темы
Вы не можете отвечать на сообщения
Вы не можете редактировать свои сообщения
Вы не можете удалять свои сообщения
Вы не можете добавлять вложения

Перейти:  

!ВНИМАНИЕ!
 Ресурс не предоставляет электронные версии произведений, а занимается лишь коллекционированием и каталогизацией ссылок, присылаемых и публикуемых на форуме нашими читателями. Если вы являетесь правообладателем какого-либо представленного материала и не желаете чтобы ссылка на него находилась в нашем каталоге, свяжитесь с нами и мы незамедлительно удалим её. Файлы для обмена на трекере предоставлены пользователями сайта, и администрация не несёт ответственности за их содержание. Просьба не заливать файлы, защищенные авторскими правами, а также файлы нелегального содержания!