На всех торрентах на трекере установлена скидка на скачивание в размере 100 процентов(а).
 Возможность скачивания торрента НЕ зависит от ограничений при низком ратио, низком аплоаде, требуемом ратио или требуемом аплоаде.


Начать новую тему Ответить на тему
Статистика раздачи
Размер: 1.46 ГБ | Добавлен: 01 фев 2014, 19:07 | Скачали: 0
Сидеров: 0  [0 байт/сек]    Личеров: 0  [0 байт/сек]
Пред. тема | След. тема 

Автор
Сообщение

СообщениеДобавлено: 01 фев 2014, 19:07 

Год выпуска: 1999
Выпущено: Чехия, Великобритания, США / 20th Century Fox Film Corporation
Жанр: ужасы, триллер
Продолжительность: 01:40:33
Перевод: Профессиональный (многоголосый закадровый)
Позитив - Мультимедиа
Cубтитры: нет
Режиссер:
Антония Бёрд / Antonia Bird
В ролях:
Гай Пирс, Роберт Карлайл, Дэвид Аркетт, Джереми Дэвис, Джеффри Джонс, Джон Спенсер, Стивен Спинелла, Нил МакДонаф, Джозеф Раннингфокс, Билл Брочтруп
Описание:
Действие фильма происходит в 1847 году, в период войны Америки с Мексикой. Капитана Джона Бойда чествуют и награждают различными медалями, однако он не рад этим обстоятельствам. Причиной его чествования стал захват ставки противника в одиночку, но только он один знает все обстоятельства столь смелого поступка — он просто струсил, бросил оружие и притворился мёртвым. Так он пролежал длительное время среди мёртвых товарищей, а впоследствии в состоянии аффекта поубивал всех неприятелей. Однако продвижения по службе Джон не получил, вместо этого его направляют в одинокий форт в горах Калифорнии. Через некоторое время в форт приходит оборванный и изголодавшийся мужчина по имени Калхун. Из его истории становится ясно, что он был членом каравана, который вёл проводник. Проводник заблудился и люди, в связи с наступившей зимой, поселились в пещере. Однако запасов еды было мало и в тот момент, когда они кончились люди начали поедать друг друга. Калхуну удалось бежать.



Качество: WEB-DLRip
Формат: AVI

Видео: 720x304 (2.37:1), 23.976 fps, XviD build 73 ~1614 kbps avg, 0.31 bit/pixel
Аудио: 48 kHz, AC3 Dolby Digital, 3/2 (L,C,R,l,r) + LFE ch, ~448.00 kbps avg
Скриншоты
MediaInfo
Код:
Код:
General
Complete name                            : D:\Ludoed_1999_WEB_DLRip_by_Dalemake.avi
Format                                   : AVI
Format/Info                              : Audio Video Interleave
File size                                : 1.46 GiB
Duration                                 : 1h 40mn
Overall bit rate                         : 2 072 Kbps
Writing application                      : VirtualDubMod 1.5.10.3 | www.virtualdub-fr.org || (build 2550/release)
Writing library                          : VirtualDubMod build 2550/release

Video
ID                                       : 0
Format                                   : MPEG-4 Visual
Format profile                           : Advanced Simple@L5
Format settings, BVOP                    : 1
Format settings, QPel                    : No
Format settings, GMC                     : No warppoints
Format settings, Matrix                  : Custom
Codec ID                                 : XVID
Codec ID/Hint                            : XviD
Duration                                 : 1h 40mn
Bit rate                                 : 1 614 Kbps
Width                                    : 720 pixels
Height                                   : 304 pixels
Display aspect ratio                     : 2.35:1
Frame rate                               : 23.976 fps
Color space                              : YUV
Chroma subsampling                       : 4:2:0
Bit depth                                : 8 bits
Scan type                                : Progressive
Compression mode                         : Lossy
Bits/(Pixel*Frame)                       : 0.308
Stream size                              : 1.13 GiB (78%)
Writing library                          : XviD 73

Audio
ID                                       : 1
Format                                   : AC-3
Format/Info                              : Audio Coding 3
Mode extension                           : CM (complete main)
Format settings, Endianness              : Big
Codec ID                                 : 2000
Duration                                 : 1h 40mn
Bit rate mode                            : Constant
Bit rate                                 : 448 Kbps
Channel(s)                               : 6 channels
Channel positions                        : Front: L C R, Side: L R, LFE
Sampling rate                            : 48.0 KHz
Bit depth                                : 16 bits
Compression mode                         : Lossy
Stream size                              : 322 MiB (22%)
Alignment                                : Split accross interleaves
Interleave, duration                     : 42 ms (1.00 video frame)
Interleave, preload duration             : 500 ms
загрузка...
Правила, инструкции, FAQ!!!
Торрент  Добавлен [01 фев 2014, 19:07] Скачать торрент
Скачать торрент
[ Размер 15.17 КБ / Просмотров 7 ]

Статус  
 
Размер  1.46 ГБ
Приватный: Нет (DHT включён)
.torrent скачан  0
Как залить торрент? | Как скачать Torrent? | Как смотреть и слушать онлайн?  


     Отправить личное сообщение
   
Страница 1 из 1
Показать сообщения за:  Поле сортировки  
Начать новую тему Ответить на тему

   Похожие торренты   Автор   Ответы   Просмотры   Последнее сообщение 
В этой теме нет новых непрочитанных сообщений. Скачать торрент Проверен (Pop / Dance) [CD] Antonia - This Is Antonia - 2015, FLAC (image+.cue), lossless

в форуме Зарубежная музыка, Размер: 423.52 МБ, Здоровье: 0%

Anonymous

0
0|0

0
0

16 авг 2016, 22:30

Anonymous Перейти к последнему сообщению

В этой теме нет новых непрочитанных сообщений. Скачать торрент Проверен Рататуй в 3Д / Ratatouille 3D (Брэд Бёрд, Ян Пинкава / Brad Bird, Jan Pinkava) [2007, Фэнтези, комедия, BDremux, 1080p] BD3D

в форуме HD-Video в 3D, Размер: 27.43 ГБ, Здоровье: 100%

Anonymous

0
21|7

197
0

02 ноя 2014, 09:51

Anonymous Перейти к последнему сообщению

В этой теме нет новых непрочитанных сообщений. Скачать торрент Проверен Рататуй в 3Д / Ratatouille 3D (Брэд Бёрд, Ян Пинкава / Brad Bird, Jan Pinkava) [2007, Мультфильм, Фэнтези, Комедия, Семейный, BDrip-AVC] Half OverUnder / Вертикальная анаморфная стереопара

в форуме HD-Video в 3D, Размер: 4.95 ГБ, Здоровье: 100%

Anonymous

0
56|19

188
0

02 ноя 2014, 09:50

Anonymous Перейти к последнему сообщению

В этой теме нет новых непрочитанных сообщений. Скачать торрент Конец света / End of Days (Питер Хайамс / Peter Hyams) [1999 г., ужасы, боевик, триллер, BDRip] Dub

в форуме Ужасы, Размер: 1.46 ГБ, Здоровье: 100%

Anonymous

0
2|0

43
2

02 янв 2014, 00:10

Anonymous Перейти к последнему сообщению

В этой теме нет новых непрочитанных сообщений. Скачать торрент [SERIAL] Сверхъестественное / Supernatural / Сезон 8 / Серии: 23 из 23 / (Eric Kripke / Эрик Крипке, Robert Singer / Роберт Сингер) [2012-2013, ужасы, фэнтези, триллер, драма, детектив, WEB-DLRip] [MP4, 640x] (LostFilm)

в форуме Видео для смартфонов и КПК, Размер: 5.81 ГБ, Здоровье: 100%

Anonymous

0
56|19

78
0

30 янв 2014, 06:46

Anonymous Перейти к последнему сообщению



Сейчас этот форум просматривают: нет зарегистрированных пользователей и гости: 1


Вы не можете начинать темы
Вы не можете отвечать на сообщения
Вы не можете редактировать свои сообщения
Вы не можете удалять свои сообщения
Вы не можете добавлять вложения

Перейти:  

!ВНИМАНИЕ!
 Ресурс не предоставляет электронные версии произведений, а занимается лишь коллекционированием и каталогизацией ссылок, присылаемых и публикуемых на форуме нашими читателями. Если вы являетесь правообладателем какого-либо представленного материала и не желаете чтобы ссылка на него находилась в нашем каталоге, свяжитесь с нами и мы незамедлительно удалим её. Файлы для обмена на трекере предоставлены пользователями сайта, и администрация не несёт ответственности за их содержание. Просьба не заливать файлы, защищенные авторскими правами, а также файлы нелегального содержания!