На всех торрентах на трекере установлена скидка на скачивание в размере 100 процентов(а).
 Возможность скачивания торрента НЕ зависит от ограничений при низком ратио, низком аплоаде, требуемом ратио или требуемом аплоаде.


Начать новую тему Ответить на тему
Статистика раздачи
Размер: 750.4 МБ | Добавлен: 19 янв 2014, 08:57 | Скачали: 0
Сидеров: 0  [0 байт/сек]    Личеров: 0  [0 байт/сек]
Пред. тема | След. тема 

Автор
Сообщение

СообщениеДобавлено: 19 янв 2014, 08:57 

Год выпуска: 1999
Выпущено: США, Германия
Жанр: ужасы, фэнтези, триллер, детектив
Продолжительность: 01:45:15
Перевод: Профессиональный (Дублированный) (МосФильм Мастер)
Cубтитры: нет

Режиссер: Тим Бёртон / Tim Burton

В ролях: Джонни Депп, Кристина Риччи, Миранда Ричардсон, Кристофер Уокен, Майкл Гэмбон, Каспер Ван Дин, Джеффри Джонс, Ричард Гриффитс, Кристофер Ли, Иен МакДермид

Описание: Нью-Йорк, 1799 год. Икабода Крэйна, молодого констебля, отправляют в местечко Сонная лощина для расследования загадочных убийств. Все жертвы, как сообщает местное население, погибают от меча всадника без головы.

Все они обезглавлены, а головы исчезли. Крэйну приходится убедиться, что это не легенда, а страшная правда. Становится очевидно, что убийца приходит с того света, что в преступлениях замешаны ведьмы и иная нечисть. Всадника нельзя убить пулей, всех смельчаков он побеждает в схватках. Но каковы мотивы злодеяний?

Semple ~ 2 Минуты

Качество: HDRip - Исходник BDRip 1080p
Формат: AVI
Видео кодек: XviD
Аудио кодек: MP3
Видео: 720x400 (1.80:1), 23.976 fps, XviD build 73 ~859 kbps avg, 0.12 bit/pixel
Аудио: 48 kHz, MPEG Layer 3, 2 ch, ~128.00 kbps avg
Код:
Общее
Полное имя                               : D:Рипы выкладка [Deadmauvlad]Рипы готовыеSonnaya.loschina.1999.XviD.HDRip.D.Deadmauvlad.avi
Формат                                   : AVI
Формат/Информация                        : Audio Video Interleave
Размер файла                             : 750 Мбайт
Продолжительность                        : 1 ч. 45 м.
Общий поток                              : 997 Кбит/сек
Название фильма                          : Sonnaya.loschina.1999.XviD.HDRip.D.Deadmauvlad
Режиссёр                                 : Deadmauvlad
Программа кодирования                    : VirtualDubMod 1.5.10.3 | www.virtualdub-fr.org || (build 2550/release)
Библиотека кодирования                   : VirtualDub build 35390/release

Видео
Идентификатор                            : 0
Формат                                   : MPEG-4 Visual
Профиль формата                          : Advanced Simple@L5
Параметр BVOP формата                    : 1
Параметр QPel формата                    : Нет
Параметр GMC формата                     : Без точки перехода
Параметр матрицы формата                 : Выборочная
Идентификатор кодека                     : XVID
Идентификатор кодека/Подсказка           : XviD
Продолжительность                        : 1 ч. 45 м.
Битрейт                                  : 859 Кбит/сек
Ширина                                   : 720 пикселей
Высота                                   : 400 пикселей
Соотношение сторон                       : 16:9
Частота кадров                           : 23,976 кадра/сек
Цветовое пространство                    : YUV
Субдискретизация насыщенности            : 4:2:0
Битовая глубина                          : 8 бит
Тип развёртки                            : Прогрессивная
Метод сжатия                             : С потерями
Бит/(Пиксели*Кадры)                      : 0.124
Размер потока                            : 647 Мбайт (86%)
Библиотека кодирования                   : XviD 73

Аудио
Идентификатор                            : 1
Формат                                   : MPEG Audio
Версия формата                           : Version 1
Профиль формата                          : Layer 3
Идентификатор кодека                     : 55
Идентификатор кодека/Подсказка           : MP3
Продолжительность                        : 1 ч. 45 м.
Вид битрейта                             : Постоянный
Битрейт                                  : 128 Кбит/сек
Каналы                                   : 2 канала
Частота                                  : 48,0 КГц
Метод сжатия                             : С потерями
Размер потока                            : 96,4 Мбайт (13%)
Выравнивание                             : Разделение по промежуткам
Продолжительность промежутка             : 42  мс. (1,00 видеокадр)
Время предзагрузки промежутка            : 500  мс.
Библиотека кодирования                   : LAME3.99r
Настройки программы                      : -m s -V 4 -q 2 -lowpass 17 -b 128





загрузка...
Правила, инструкции, FAQ!!!
Торрент  Добавлен [19 янв 2014, 08:57] Скачать торрент
Скачать торрент
[ Размер 15.29 КБ / Просмотров 6 ]

Статус  
 
Размер  750.4 МБ
Приватный: Нет (DHT включён)
.torrent скачан  0
Как залить торрент? | Как скачать Torrent? | Как смотреть и слушать онлайн?  


     Отправить личное сообщение
   
Страница 1 из 1
Показать сообщения за:  Поле сортировки  
Начать новую тему Ответить на тему

   Похожие торренты   Автор   Ответы   Просмотры   Последнее сообщение 
В этой теме нет новых непрочитанных сообщений. Скачать торрент Проверен Сонная Лощина / Sleepy Hollow (Тим Бёртон / Tim Burton) [1999, США, Германия, ужасы, фэнтези, триллер, детектив, BDRip, 480p] 3xMVO + Original + sub (rus, eng)

в форуме Фильмы для iPod, iPhone, iPad, Размер: 1.46 ГБ, Здоровье: 100%

Anonymous

0
12|4

30
0

12 май 2015, 00:09

Anonymous Перейти к последнему сообщению

В этой теме нет новых непрочитанных сообщений. Скачать торрент Проверен Сонная Лощина / Sleepy Hollow [S02] (2014) WEB-DL 720p | LostFilm

в форуме Зарубежные сериалы, Размер: 26.26 ГБ, Здоровье: 10%

Гость

0
9|86

158
6

26 фев 2015, 20:24

Гость Перейти к последнему сообщению

В этой теме нет новых непрочитанных сообщений. Скачать торрент Сонная Лощина / Sleepy Hollow [S01] (2013-2014) WEB-DLRip | NewStudio

в форуме Зарубежные сериалы, Размер: 6.49 ГБ, Здоровье: 100%

Anonymous

0
44|2

116
75

23 янв 2014, 20:40

Anonymous Перейти к последнему сообщению

В этой теме нет новых непрочитанных сообщений. Скачать торрент Проверен (Psychedelic | Pop Rock) Sleepy Hollow - Sleepy Hollow - 1972 (vinyl rip) MP3, 320 kbps

в форуме Classic Rock & Hard Rock, Размер: 78.23 МБ, Здоровье: 0%

Anonymous

0
0|0

0
0

13 ноя 2016, 14:23

Anonymous Перейти к последнему сообщению

В этой теме нет новых непрочитанных сообщений. Скачать торрент Проверен (Heavy/Power Metal) Sleepy Hollow - Rest In Pieces [Compilation] - 2002, MP3, 256 kbps (?)

в форуме Heavy, Power, Progressive (Metal), Размер: 90.57 МБ, Здоровье: 0%

Anonymous

0
0|0

3
0

09 окт 2016, 13:12

Anonymous Перейти к последнему сообщению



Сейчас этот форум просматривают: нет зарегистрированных пользователей и гости: 1


Вы не можете начинать темы
Вы не можете отвечать на сообщения
Вы не можете редактировать свои сообщения
Вы не можете удалять свои сообщения
Вы не можете добавлять вложения

Перейти:  

!ВНИМАНИЕ!
 Ресурс не предоставляет электронные версии произведений, а занимается лишь коллекционированием и каталогизацией ссылок, присылаемых и публикуемых на форуме нашими читателями. Если вы являетесь правообладателем какого-либо представленного материала и не желаете чтобы ссылка на него находилась в нашем каталоге, свяжитесь с нами и мы незамедлительно удалим её. Файлы для обмена на трекере предоставлены пользователями сайта, и администрация не несёт ответственности за их содержание. Просьба не заливать файлы, защищенные авторскими правами, а также файлы нелегального содержания!