На всех торрентах на трекере установлена скидка на скачивание в размере 100 процентов(а).
 Возможность скачивания торрента НЕ зависит от ограничений при низком ратио, низком аплоаде, требуемом ратио или требуемом аплоаде.


Начать новую тему Ответить на тему
Статистика раздачи
Размер: 1.46 ГБ | Добавлен: 22 дек 2013, 17:46 | Скачали: 0
Сидеров: 0  [0 байт/сек]    Личеров: 0  [0 байт/сек]
Пред. тема | След. тема 

Автор
Сообщение

СообщениеДобавлено: 22 дек 2013, 17:46 

Плохой Санта / Bad Santa

Страна: США
Жанр: комедия
Год выпуска: 2003
Продолжительность: 01:39:16
Перевод: Авторский (одноголосый закадровый) Гоблин
Cубтитры: нет
Оригинальная аудиодорожка: нет

Режиссер: Терри Цвигофф / Terry Zwigoff

В ролях: Билли Боб Торнтон, Тони Кокс, Бретт Келли, Лорен Грэм, Лоурен Том, Берни Мак, Джон Риттер, Аджай Найду, Клорис Личмен, Мэтт Уолш

Описание: Два жулика разыгрывают представления и презентации в крупных магазинах, а затем их обворовывают. Один из них выступает под видом Санта Клауса (Деда Мороза по нашему). Очаровательная черная комедия от голливудских мастеров.



Качество видео: BDRip - Исходник BDRemux 1080p
Формат видео: AVI
Видео кодек: XviD
Аудио кодек: AC3
Видео: 704x384 (1.83:1), 23.976 fps, XviD build 73 ~1710 kbps avg, 0.26 bit/pixel
Аудио: 48 kHz, AC3 Dolby Digital, 3/2 (L,C,R,l,r) + LFE ch, ~384 kbps

Раздача от:


D:Мои рипыBad.Santa.2003.BDRip.GOBLIN.dexter_lex.avi
General
Complete name : D:Мои рипыBad.Santa.2003.BDRip.GOBLIN.dexter_lex.avi
Format : AVI
Format/Info : Audio Video Interleave
File size : 1.46 GiB
Duration : 1h 39mn
Overall bit rate : 2 104 Kbps
Writing application : VirtualDubMod 1.5.10.3 | http://www.virtualdub-fr.org || (build 2550/release)
Writing library : VirtualDubMod build 2550/release
Video #0
ID : 0
Format : MPEG-4 Visual
Format profile : Advanced Simple@L5
Format settings, BVOP : 1
Format settings, QPel : No
Format settings, GMC : No warppoints
Format settings, Matrix : Custom
Codec ID : XVID
Codec ID/Hint : XviD
Duration : 1h 39mn
Bit rate : 1 711 Kbps
Width : 704 pixels
Height : 384 pixels
Display aspect ratio : 16:9
Frame rate : 23.976 fps
Color space : YUV
Chroma subsampling : 4:2:0
Bit depth : 8 bits
Scan type : Progressive
Compression mode : Lossy
Bits/(Pixel*Frame) : 0.264
Stream size : 1.19 GiB (81%)
Writing library : XviD 73
Audio #1
ID : 1
Format : AC-3
Format/Info : Audio Coding 3
Mode extension : CM (complete main)
Codec ID : 2000
Duration : 1h 39mn
Bit rate mode : Constant
Bit rate : 384 Kbps
Channel(s) : 6 channels
Channel positions : Front: L C R, Side: L R, LFE
Sampling rate : 48.0 KHz
Bit depth : 16 bits
Compression mode : Lossy
Stream size : 273 MiB (18%)
Alignment : Split accross interleaves
Interleave, duration : 42 ms (1.00 video frame)
Interleave, preload duration : 500 ms
загрузка...
Правила, инструкции, FAQ!!!
Торрент  Добавлен [22 дек 2013, 17:46] Скачать торрент
Скачать торрент
[ Размер 15.07 КБ / Просмотров 10 ]

Статус  
 
Размер  1.46 ГБ
Приватный: Нет (DHT включён)
.torrent скачан  0
Как залить торрент? | Как скачать Torrent? | Как смотреть и слушать онлайн?  


     Отправить личное сообщение
   
Страница 1 из 1
Показать сообщения за:  Поле сортировки  
Начать новую тему Ответить на тему

   Похожие торренты   Автор   Ответы   Просмотры   Последнее сообщение 
В этой теме нет новых непрочитанных сообщений. Скачать торрент Плохой Санта / Bad Santa (Терри Цвигофф / Terry Zwigoff) [2003 г., комедия, BDRip-AVC] Dub

в форуме Комедии, Размер: 1.47 ГБ, Здоровье: 0%

Anonymous

0
0|0

40
0

24 апр 2014, 14:06

Anonymous Перейти к последнему сообщению

В этой теме нет новых непрочитанных сообщений. Скачать торрент Санта Клаус / The Santa Clause (1994) BDRip 720p | Лицензия

в форуме 720p | 1080p, Размер: 4.83 ГБ, Здоровье: 0%

Anonymous

0
0|0

26
0

25 дек 2013, 12:57

Anonymous Перейти к последнему сообщению

В этой теме нет новых непрочитанных сообщений. Скачать торрент Проверен Robert Crichton / Роберт Крайтон - The Secret of Santa Vittoria / Тайна Санта-Виттории [1970, FB2/RTF/PDF, RUS]

в форуме Зарубежная литература (XX и XXI век), Размер: 13.2 МБ, Здоровье: 0%

Anonymous

0
0|0

3
0

08 сен 2016, 18:47

Anonymous Перейти к последнему сообщению

В этой теме нет новых непрочитанных сообщений. Скачать торрент Проверен Жиль Дюрье, Генри Крейн и Александра Полстон - Санта-Барбара / Santa Barbara (12 книг из 12) [1993-1994, DOC, FB2, PDF, RUS]

в форуме Женский роман, Размер: 50.92 МБ, Здоровье: 100%

Anonymous

0
5|2

0
0

28 авг 2016, 20:52

Anonymous Перейти к последнему сообщению

В этой теме нет новых непрочитанных сообщений. Скачать торрент В поисках Санта Лапуса / The Search for Santa Paws (Роберт Винс / Robert Vince) [2010, Канада, Семейный, HDRip] DUB

в форуме Детское, Семейное кино, Размер: 744.64 МБ, Здоровье: 100%

Anonymous

0
3|1

67
1

16 апр 2014, 07:52

Anonymous Перейти к последнему сообщению



Сейчас этот форум просматривают: нет зарегистрированных пользователей и гости: 2


Вы не можете начинать темы
Вы не можете отвечать на сообщения
Вы не можете редактировать свои сообщения
Вы не можете удалять свои сообщения
Вы не можете добавлять вложения

Перейти:  

!ВНИМАНИЕ!
 Ресурс не предоставляет электронные версии произведений, а занимается лишь коллекционированием и каталогизацией ссылок, присылаемых и публикуемых на форуме нашими читателями. Если вы являетесь правообладателем какого-либо представленного материала и не желаете чтобы ссылка на него находилась в нашем каталоге, свяжитесь с нами и мы незамедлительно удалим её. Файлы для обмена на трекере предоставлены пользователями сайта, и администрация не несёт ответственности за их содержание. Просьба не заливать файлы, защищенные авторскими правами, а также файлы нелегального содержания!