На всех торрентах на трекере установлена скидка на скачивание в размере 100 процентов(а).
 Возможность скачивания торрента НЕ зависит от ограничений при низком ратио, низком аплоаде, требуемом ратио или требуемом аплоаде.


Начать новую тему Ответить на тему
Статистика раздачи
Размер: 1.46 ГБ | Добавлен: 25 ноя 2013, 13:50 | Скачали: 1
Сидеров: 1  [0 байт/сек]    Личеров: 0  [0 байт/сек]
Пред. тема | След. тема 

Автор
Сообщение

СообщениеДобавлено: 25 ноя 2013, 13:50 

«Комедия, которая доведёт вас до О...»



Страна: Канада
Студия: Banana-Moon Sky Films, Julijette, Kosher Sexy Films
Жанр: комедия
Год выпуска: 2012
Продолжительность: 01:43:23

Перевод: Профессиональный (многоголосый закадровый)
Оригинальная аудиодорожка: английский
Cубтитры: русский

Режиссер: Шон Гэррити / Sean Garrity

В ролях: Йонас Черник, Эмили Хэмпшир, Сара Мэннинен, Вик Сахай, Мелисса Мари Елиас, Аиша Альфа, Онали Эймс, Рэнди Апостл, Майк Белл, Джессика Бёрлсон...

Описание:
Чтобы вернуть свою неудовлетворенную бывшую девушку, консервативный бухгалтер Джордан Абрамс заручается поддержкой Юлии — раскованной экзотической танцовщицы, которая отправляет его на поиски сексуального опыта, что открывает перед ним мир стрип-клубов, чувственных массажных салонов, переодеваний в женскую одежду и садомазохизма...






Исходник: Blu-ray 1080p
Качество: BDRip
Формат: AVI

Видео: 720x400 (16:9), 24.000 fps, XviD ~ 1565 kbps avg, 0.226 bit/pixel
Аудио: 48 kHz, AC3 6 ch, 448 kbps, русский
Релиз от:
Общее
Полное имя : Seks.i.nichevo.lishnego.2012.P.BDRip[Youtracker]_dy_avproh.avi
Формат : AVI
Формат/Информация : Audio Video Interleave
Размер файла : 1,46 Гбайт
Продолжительность : 1 ч. 43 м.
Общий поток : 2023 Кбит/сек
Программа кодирования : VirtualDubModRus 1.5.10.2 (build 2542/release)
Библиотека кодирования : VirtualDubMod build 2542/release

Видео
Идентификатор : 0
Формат : MPEG-4 Visual
Профиль формата : Advanced Simple@L5
Параметр BVOP формата : 1
Параметр QPel формата : Нет
Параметр GMC формата : Без точки перехода
Параметр матрицы формата : Выборочная
Идентификатор кодека : XVID
Идентификатор кодека/Подсказка : XviD
Продолжительность : 1 ч. 43 м.
Битрейт : 1565 Кбит/сек
Ширина : 720 пикселей
Высота : 400 пикселей
Соотношение сторон : 16:9
Частота кадров : 24,000 кадра/сек
Цветовое пространство : YUV
Субдискретизация насыщенности : 4:2:0
Битовая глубина : 8 бит
Тип развёртки : Прогрессивная
Метод сжатия : С потерями
Бит/(Пиксели*Кадры) : 0.226
Размер потока : 1,13 Гбайт (77%)
Библиотека кодирования : XviD 65

Аудио
Идентификатор : 1
Формат : AC-3
Формат/Информация : Audio Coding 3
Расширение режима : CM (complete main)
Параметр Endianness формата : Big
Идентификатор кодека : 2000
Продолжительность : 1 ч. 43 м.
Вид битрейта : Постоянный
Битрейт : 448 Кбит/сек
Каналы : 6 каналов
Расположение каналов : Front: L C R, Side: L R, LFE
Частота : 48,0 КГц
Битовая глубина : 16 бит
Метод сжатия : С потерями
Размер потока : 331 Мбайт (22%)
Выравнивание : Разделение по промежуткам
Продолжительность промежутка : 42 мс. (1,00 видеокадр)
Время предзагрузки промежутка : 500 мс.


загрузка...
Правила, инструкции, FAQ!!!
Торрент  Добавлен [25 ноя 2013, 13:50] Скачать торрент
Скачать торрент
[ Размер 15.26 КБ / Просмотров 7 ]

Статус  
 
Размер  1.46 ГБ
Приватный: Нет (DHT включён)
.torrent скачан  1
Как залить торрент? | Как скачать Torrent? | Как смотреть и слушать онлайн?  


     Отправить личное сообщение
   
Страница 1 из 1
Показать сообщения за:  Поле сортировки  
Начать новую тему Ответить на тему

   Похожие торренты   Автор   Ответы   Просмотры   Последнее сообщение 
В этой теме нет новых непрочитанных сообщений. Скачать торрент Этот неловкий момент / That Awkward Moment (2014) DVDRip | Лицензия

в форуме Драмы, Мелодрамы, Размер: 1.37 ГБ, Здоровье: 100%

Anonymous

0
3355|85

75
46599

20 апр 2014, 21:04

Anonymous Перейти к последнему сообщению

В этой теме нет новых непрочитанных сообщений. Скачать торрент Сексуальная жизнь / Жизнь как секс / Sexual life (Кен Куопис / Ken Kwapis) [2005 г., Мелодрама, комедия, DVDRip]

в форуме Драмы, Мелодрамы, Размер: 1.36 ГБ, Здоровье: 11%

Anonymous

0
3|27

95
3

25 апр 2014, 08:53

Anonymous Перейти к последнему сообщению

В этой теме нет новых непрочитанных сообщений. Скачать торрент Проверен Секс по дружбе / Friends with Benefits (2011) BDRip 720p от HELLYWOOD | Лицензия

в форуме 720p | 1080p, Размер: 5.37 ГБ, Здоровье: 100%

Anonymous

0
51|10

94
55

06 июн 2014, 21:23

Anonymous Перейти к последнему сообщению

В этой теме нет новых непрочитанных сообщений. Скачать торрент Неудовлетворенное сексуальное напряжение / Tension Sexual No Resuelta (2010) DVDRip-AVC | Лицензия

в форуме Комедии, Размер: 1.55 ГБ, Здоровье: 0%

Anonymous

0
0|0

70
0

05 мар 2014, 16:19

Anonymous Перейти к последнему сообщению

В этой теме нет новых непрочитанных сообщений. Скачать торрент Проверен (Symphonic Prog) Adventure - Adventure - 2000 (2006), FLAC (image+.cue), lossless

в форуме Progressive & Art-Rock, Размер: 445.56 МБ, Здоровье: 0%

Anonymous

0
0|0

1
0

30 авг 2016, 22:48

Anonymous Перейти к последнему сообщению



Сейчас этот форум просматривают: нет зарегистрированных пользователей и гости: 1


Вы не можете начинать темы
Вы не можете отвечать на сообщения
Вы не можете редактировать свои сообщения
Вы не можете удалять свои сообщения
Вы не можете добавлять вложения

Перейти:  

!ВНИМАНИЕ!
 Ресурс не предоставляет электронные версии произведений, а занимается лишь коллекционированием и каталогизацией ссылок, присылаемых и публикуемых на форуме нашими читателями. Если вы являетесь правообладателем какого-либо представленного материала и не желаете чтобы ссылка на него находилась в нашем каталоге, свяжитесь с нами и мы незамедлительно удалим её. Файлы для обмена на трекере предоставлены пользователями сайта, и администрация не несёт ответственности за их содержание. Просьба не заливать файлы, защищенные авторскими правами, а также файлы нелегального содержания!