На всех торрентах на трекере установлена скидка на скачивание в размере 100 процентов(а).
 Возможность скачивания торрента НЕ зависит от ограничений при низком ратио, низком аплоаде, требуемом ратио или требуемом аплоаде.


Начать новую тему Ответить на тему
Статистика раздачи
Размер: 1.38 ГБ | Добавлен: 05 дек 2012, 08:22 | Скачали: 1
Сидеров: 0  [0 байт/сек]    Личеров: 0  [0 байт/сек]
Пред. тема | След. тема 

Автор
Сообщение

СообщениеДобавлено: 05 дек 2012, 08:22 

27 украденных поцелуев / 27 Missing Kisses



О фильме:
Приезд юной Сибиллы всколыхнул сонную грузинскую деревушку, где время навсегда затерялось среди солнечных гор и прозрачных рек. Подружившись с местным парнем Мики, независимая Сибилла вскоре влюбилась в его отца, астронома Александра, интеллектуала и ловеласа.
Проблема лишь в том, что Сибилле всего 14 лет, и ее не по-детски откровенные слова и поступки возмущают и шокируют обывателей. Кажется, что юная сердцеедка не найдет понимания среди своих новых знакомых, а ее любовь останется без ответа, однако ситуация в деревне неожиданно меняется, когда однажды вечером в клубе решают показать знаменитый фильм «Эммануэль»…

Название: 27 украденных поцелуев
Год выхода: 2000
Жанр: Комедия, мелодрама
Режиссер: Нана Джорджадзе

В фильме снимались: Нуца Кухианидзе, Евгений Сидихин, Шако Иашвили, Пьер Ришар, Амалия Мордвинова, Леван Учанейшвили, Давит Гогибедашвили, Элгуджа Бурдули, Байя Двалишвили, Хатуна Иоселиани, Марина Кахиани, Нино Коберидзе, Гия Роинишвили, Нана Шония, Тамара Схиртладзе, Нино Тархан-Моурави, Баадур Цуладзе, Зураб Кипшидзе, Римма Маркова



Страна: Германия, Франция, Великобритания, Грузия
Студия: Egoli films
Продолжительность: 01:35:21
Перевод: Профессиональный, двухголосый

General
Complete name : C:27.ukradennich.potseluev.2000.XviD.DVDRip.avi
Format : AVI
Format/Info : Audio Video Interleave
File size : 1.38 GiB
Duration : 1h 35mn 21s
Overall bit rate : 2 072 Kbps
Writing application : VirtualDubMod 1.5.10.3 | http://www.virtualdub-fr.org || (build 2550/release)
Writing library : VirtualDubMod build 2550/release
Video #0
ID : 0
Format : MPEG-4 Visual
Format profile : Advanced Simple@L5
Format settings, BVOP : 2
Format settings, QPel : No
Format settings, GMC : No warppoints
Format settings, Matrix : Default (MPEG)
Codec ID : XVID
Codec ID/Hint : XviD
Duration : 1h 35mn 21s
Bit rate : 1 806 Kbps
Width : 704 pixels
Height : 384 pixels
Display aspect ratio : 1.85:1
Frame rate : 23.976 fps
Color space : YUV
Chroma subsampling : 4:2:0
Bit depth : 8 bits
Scan type : Progressive
Compression mode : Lossy
Bits/(Pixel*Frame) : 0.279
Stream size : 1.20 GiB (87%)
Writing library : XviD 1.2.1 (UTC 2008-12-04)
Audio #1
ID : 1
Format : AC-3
Format/Info : Audio Coding 3
Mode extension : CM (complete main)
Format settings, Endianness : Big
Codec ID : 2000
Duration : 1h 35mn 21s
Bit rate mode : Constant
Bit rate : 256 Kbps
Channel(s) : 2 channels
Channel positions : Front: L R
Sampling rate : 48.0 KHz
Bit depth : 16 bits
Compression mode : Lossy
Stream size : 175 MiB (12%)
Alignment : Split accross interleaves
Interleave, duration : 42 ms (1.00 video frame)
Interleave, preload duration : 500 ms


, , , ,


Формат: avi
Кодек: XviD
Качество: DVDRip
Видео: 704x384, 1806 kbps, 23.976 fps
Звук: AC3, 2ch, 256 kbps, 48.0 khz

Приятного просмотра!
загрузка...
Правила, инструкции, FAQ!!!
Торрент  Добавлен [05 дек 2012, 08:22] Скачать торрент
Скачать торрент
[ Размер 14.37 КБ / Просмотров 20 ]

Статус
Проверен 
 
Размер  1.38 ГБ
Приватный: Нет (DHT включён)
.torrent скачан  1
Как залить торрент? | Как скачать Torrent? | Как смотреть и слушать онлайн?  


     Отправить личное сообщение
   
Страница 1 из 1
Показать сообщения за:  Поле сортировки  
Начать новую тему Ответить на тему

   Похожие торренты   Автор   Ответы   Просмотры   Последнее сообщение 
В этой теме нет новых непрочитанных сообщений. Скачать торрент 50 первых поцелуев / 50 First Dates (Питер Сигал / Peter Segal) [2004, США, комедия, мелодрама, BDRip-AVC] Dub

в форуме Комедии, Размер: 2.18 ГБ, Здоровье: 100%

Anonymous

0
56|19

25
0

28 апр 2014, 22:42

Anonymous Перейти к последнему сообщению

В этой теме нет новых непрочитанных сообщений. Скачать торрент Проверен [iPod] Чего хотят женщины / What Women Want (Нэнси Мейерс) [2000 г., фэнтези, мелодрама, комедия, DVDRip]

в форуме Фильмы для iPod, iPhone, iPad, Размер: 453.37 МБ, Здоровье: 85%

Anonymous

0
6|7

46
2

18 май 2015, 10:47

Anonymous Перейти к последнему сообщению

В этой теме нет новых непрочитанных сообщений. Скачать торрент Проверен [iPhone] Девять ярдов 1,2 / The Whole Nine Yards,The Whole Ten Yards (Джонатан Линн) [2000,2004 комедия, мелодрама, драма, приключения, криминал, DVDRip]

в форуме Фильмы для iPod, iPhone, iPad, Размер: 1.01 ГБ, Здоровье: 100%

Anonymous

0
9|1

33
1

14 май 2015, 00:27

Anonymous Перейти к последнему сообщению

В этой теме нет новых непрочитанных сообщений. Скачать торрент Проверен [iPhone] Кое-что еще / Anything Else (Вуди Аллен) [2003 г., комедия, мелодрама, DVDRip]

в форуме Фильмы для iPod, iPhone, iPad, Размер: 435.4 МБ, Здоровье: 100%

Anonymous

0
5|2

28
0

14 май 2015, 00:20

Anonymous Перейти к последнему сообщению

В этой теме нет новых непрочитанных сообщений. Скачать торрент Оргазм Эми / Amy's Orgasm (Джули Дэвис) [2001 г., комедия, мелодрама, DVDRip]

в форуме Комедии, Размер: 669 МБ, Здоровье: 100%

Anonymous

0
1|0

63
0

28 апр 2014, 22:40

Anonymous Перейти к последнему сообщению



Сейчас этот форум просматривают: нет зарегистрированных пользователей и гости: 1


Вы не можете начинать темы
Вы не можете отвечать на сообщения
Вы не можете редактировать свои сообщения
Вы не можете удалять свои сообщения
Вы не можете добавлять вложения

Перейти:  

!ВНИМАНИЕ!
 Ресурс не предоставляет электронные версии произведений, а занимается лишь коллекционированием и каталогизацией ссылок, присылаемых и публикуемых на форуме нашими читателями. Если вы являетесь правообладателем какого-либо представленного материала и не желаете чтобы ссылка на него находилась в нашем каталоге, свяжитесь с нами и мы незамедлительно удалим её. Файлы для обмена на трекере предоставлены пользователями сайта, и администрация не несёт ответственности за их содержание. Просьба не заливать файлы, защищенные авторскими правами, а также файлы нелегального содержания!