На всех торрентах на трекере установлена скидка на скачивание в размере 100 процентов(а).
 Возможность скачивания торрента НЕ зависит от ограничений при низком ратио, низком аплоаде, требуемом ратио или требуемом аплоаде.


Начать новую тему Ответить на тему
Статистика раздачи
Размер: 1.37 ГБ | Добавлен: 28 окт 2013, 10:22 | Скачали: 0
Сидеров: 0  [0 байт/сек]    Личеров: 0  [0 байт/сек]
Пред. тема | След. тема 

Автор
Сообщение

СообщениеДобавлено: 28 окт 2013, 10:22 

Убальда, обнаженная и жаркая / Quel gran pezzo della Ubalda tutta nuda e tutta calda (1972) DVDRip

Год выпуска: 1972
Производство: Италия, "Lea Film"
Жанр: Комедия, эротика
Перевод: Одноголосый закадровый
Субтитры: Отсутствуют

Дата мировой премьеры: 12 октября 1972, Италия

Режиссер: Мариано Лауренти
Сценарий: Тито Карпи, Лучано Мартино, Carlo Veo
Продюсер: Лучано Мартино
Актеры: Эдвиж Фенек, Пиппо Франко, Карин Шуберт, Умберто Д’Орси, Пино Феррара, Джино Паньяни, Альберто Соррентино, Ренато Малавази, Dante Cleri, Ренато Монтальбано, Бруно Бошетти, Карла Манчини, Нелло Вивие, Эрмелинда Де Феличе, Джузеппе Коломбо, Фаусто Ди Белла, Энни Кэрол Эдел, Этторе Арена, Marcello Meconizzi, Alessandro Zangirolami, Габриэлла Джорджелли

Описание фильма:
Во времена Средневековья, нескладный рыцарь возвращается домой, к ожидающей его жене. Чувственная и прекрасная, она успела обзавестись несколькими воздыхателями за время его отсутствия. Однако, сберечь верность ей помог пояс целомудрия, ключ от которого она теперь пытается выманить у своего мужа.
У тучного соседа рыцаря те же проблемы с его эффектно выглядящей женой. Более того, оба соседа имеют виды на жен друг друга, что заставляет их изобретать все более изощренные средства, которые смогут помешать покушению на их собственность.

Семпл

Продолжительность: 01:29:59
Качество видео: DVDRip

Видеокодек: Xvid
Битрейт видео: 1973 кбит/c
Размер кадра: 720x320
Аудиокодек: AC3, 2 ch
Битрейт аудио: 192 кбит/c
General
Complete name : D:\Ubalda_1972.DVDRip.XviD.avi
Format : AVI
Format/Info : Audio Video Interleave
File size : 1.37 GiB
Duration : 1h 29mn
Overall bit rate : 2 174 Kbps
Writing application : VirtualDubMod 1.5.10.2 (build 2540/release)
Writing library : VirtualDubMod build 2540/release

Video
ID : 0
Format : MPEG-4 Visual
Format profile : Advanced Simple@L5
Format settings, BVOP : 2
Format settings, QPel : No
Format settings, GMC : No warppoints
Format settings, Matrix : Default (H.263)
Codec ID : XVID
Codec ID/Hint : XviD
Duration : 1h 29mn
Bit rate : 1 973 Kbps
Width : 720 pixels
Height : 320 pixels
Display aspect ratio : 2.25:1
Frame rate : 23.976 fps
Color space : YUV
Chroma subsampling : 4:2:0
Bit depth : 8 bits
Scan type : Progressive
Compression mode : Lossy
Bits/(Pixel*Frame) : 0.357
Stream size : 1.24 GiB (91%)
Writing library : XviD 1.2.1 (UTC 2008-12-04)

Audio
ID : 1
Format : AC-3
Format/Info : Audio Coding 3
Mode extension : CM (complete main)
Format settings, Endianness : Big
Codec ID : 2000
Duration : 1h 29mn
Bit rate mode : Constant
Bit rate : 192 Kbps
Channel(s) : 2 channels
Channel positions : Front: L R
Sampling rate : 48.0 KHz
Bit depth : 16 bits
Compression mode : Lossy
Stream size : 124 MiB (9%)
Alignment : Split accross interleaves
Interleave, duration : 42 ms (1.00 video frame)
Interleave, preload duration : 500 ms
Скриншоты:



загрузка...
Правила, инструкции, FAQ!!!
Торрент  Добавлен [28 окт 2013, 10:22] Скачать торрент
Скачать торрент
[ Размер 14.53 КБ / Просмотров 16 ]

Статус  
 
Размер  1.37 ГБ
Приватный: Нет (DHT включён)
.torrent скачан  0
Как залить торрент? | Как скачать Torrent? | Как смотреть и слушать онлайн?  


     Отправить личное сообщение
   
Страница 1 из 1
Показать сообщения за:  Поле сортировки  
Начать новую тему Ответить на тему

   Похожие торренты   Автор   Ответы   Просмотры   Последнее сообщение 
В этой теме нет новых непрочитанных сообщений. Скачать торрент Проверен Обнаженная принцесса / La principessa nuda (1976) DVDRip | L1

в форуме Драмы, Мелодрамы, Размер: 699.94 МБ, Здоровье: 100%

Гость

0
165|10

164
941

17 окт 2015, 18:31

Гость Перейти к последнему сообщению

В этой теме нет новых непрочитанных сообщений. Скачать торрент Проверен Во всем виноват Фрейд / Tutta colpa di Freud (2014) HDRip | L1

в форуме Комедии, Размер: 2.18 ГБ, Здоровье: 100%

Anonymous

0
466|64

47
2939

22 сен 2014, 06:23

Anonymous Перейти к последнему сообщению

В этой теме нет новых непрочитанных сообщений. Скачать торрент Проверен (Progressive Rock) Garybaldi - Nuda (1972), Astrolabio (1973), WAVPack (image+.cue), lossless

в форуме Progressive & Art-Rock, Размер: 433.27 МБ, Здоровье: 100%

Anonymous

0
5|5

14
2

03 сен 2016, 00:11

Anonymous Перейти к последнему сообщению

В этой теме нет новых непрочитанных сообщений. Скачать торрент Проверен Анна, это особое удовольствие / Anna, quel particolare piacere (1973) DVDRip | L1

в форуме Драмы, Мелодрамы, Размер: 1.4 ГБ, Здоровье: 100%

Anonymous

0
64|48

37
84

18 окт 2014, 16:01

Anonymous Перейти к последнему сообщению

В этой теме нет новых непрочитанных сообщений. Скачать торрент Проверен (Modern Hard Rock) Corte Gran - Corte Gran - 2015, MP3, 320 kbps

в форуме Classic Rock & Hard Rock, Размер: 91.27 МБ, Здоровье: 0%

Anonymous

0
0|0

1
0

13 ноя 2016, 20:52

Anonymous Перейти к последнему сообщению



Сейчас этот форум просматривают: нет зарегистрированных пользователей и гости: 2


Вы не можете начинать темы
Вы не можете отвечать на сообщения
Вы не можете редактировать свои сообщения
Вы не можете удалять свои сообщения
Вы не можете добавлять вложения

Перейти:  

!ВНИМАНИЕ!
 Ресурс не предоставляет электронные версии произведений, а занимается лишь коллекционированием и каталогизацией ссылок, присылаемых и публикуемых на форуме нашими читателями. Если вы являетесь правообладателем какого-либо представленного материала и не желаете чтобы ссылка на него находилась в нашем каталоге, свяжитесь с нами и мы незамедлительно удалим её. Файлы для обмена на трекере предоставлены пользователями сайта, и администрация не несёт ответственности за их содержание. Просьба не заливать файлы, защищенные авторскими правами, а также файлы нелегального содержания!