На всех торрентах на трекере установлена скидка на скачивание в размере 100 процентов(а).
 Возможность скачивания торрента НЕ зависит от ограничений при низком ратио, низком аплоаде, требуемом ратио или требуемом аплоаде.


Начать новую тему Ответить на тему
Статистика раздачи
Размер: 1.45 ГБ | Добавлен: 17 сен 2013, 08:25 | Скачали: 0
Сидеров: 0  [0 байт/сек]    Личеров: 0  [0 байт/сек]
Пред. тема | След. тема 

Автор
Сообщение

СообщениеДобавлено: 17 сен 2013, 08:25 

Название: Мир, любовь и недопонимание
Оригинальное название: Peace, Love, & Misunderstanding
Год выхода: 2011
Жанр: драма, комедия
Режиссер: Брюс Бересфорд

В ролях: Джеффри Дин Морган, Чейс Кроуфорд, Элизабет Олсен, Кэтрин Кинер, Джейн Фонда, Кайл МакЛахлан, Розанна Аркетт, Кэтрин МакФи, Нат Фолфф, Мэдди Кормэн...

О фильме: Дайан, нью-йоркскую женщину-адвоката консервативных взглядов, оставляет муж. В итоге она отправляется вместе с сыном и дочерью в Вудсток к их бабушке, которая исповедует мировоззрение хиппи и давно отдалилась от своей семьи.



Страна: США
Продолжительность: 01:32:22
Перевод: Профессиональный (двухголосый закадровый), Оригинал (Английский)

Файл
Кодек: XviD
Качество: HDRip
Видео: 720x304 (2.37:1), 23.976 fps, 1661 kbps, 0.317 bit/pixel
Аудио #1: 48 kHz, AC3 Dolby Digital, 2/0 (L,R) ch, ~192.00 kbps (Русский)
Аудио #2: 48 kHz, AC3 Dolby Digital, 3/2 (L,C,R,l,r) + LFE ch, ~384.00 kbps (Английский)
Субтитры: Русские, Английские (внешние)
Семпл

Общее
Полное имя : D:TorrentPeace, Love, & Misunderstanding.2011.HDRipPeace, Love, & Misunderstanding.2011.HDRip.avi
Формат : AVI
Формат/Информация : Audio Video Interleave
Размер файла : 1,45 Гбайт
Продолжительность : 1 ч. 32 м.
Общий поток : 2251 Кбит/сек
Программа кодирования : VirtualDubModRus 1.5.10.2 (build 2542/release)
Библиотека кодирования : VirtualDubMod build 2542/release

Видео
Идентификатор : 0
Формат : MPEG-4 Visual
Профиль формата : Advanced Simple@L5
Параметр BVOP формата : 1
Параметр QPel формата : Нет
Параметр GMC формата : Без точки перехода
Параметр матрицы формата : Выборочная
Режим смешивания : Сжатый битовый поток
Идентификатор кодека : XVID
Идентификатор кодека/Подсказка : XviD
Продолжительность : 1 ч. 32 м.
Битрейт : 1661 Кбит/сек
Ширина : 720 пикселей
Высота : 304 пикселя
Соотношение сторон : 2,35:1
Частота кадров : 23,976 кадра/сек
Цветовое пространство : YUV
Субдискретизация насыщенности : 4:2:0
Битовая глубина : 8 бит
Тип развёртки : Прогрессивная
Метод сжатия : С потерями
Бит/(Пиксели*Кадры) : 0.317
Размер потока : 1,07 Гбайт (74%)
Библиотека кодирования : XviD 73

Аудио #1
Идентификатор : 1
Формат : AC-3
Формат/Информация : Audio Coding 3
Расширение режима : CM (complete main)
Параметр Endianness формата : Big
Идентификатор кодека : 2000
Продолжительность : 1 ч. 32 м.
Вид битрейта : Постоянный
Битрейт : 192 Кбит/сек
Каналы : 2 канала
Расположение каналов : Front: L R
Частота : 48,0 КГц
Битовая глубина : 16 бит
Метод сжатия : С потерями
Размер потока : 127 Мбайт (9%)
Выравнивание : Разделение по промежуткам
Продолжительность промежутка : 42 мс. (1,00 видеокадр)
Время предзагрузки промежутка : 500 мс.
Заголовок : Профессиональный (двухголосый закадровый)

Аудио #2
Идентификатор : 2
Формат : AC-3
Формат/Информация : Audio Coding 3
Расширение режима : CM (complete main)
Параметр Endianness формата : Big
Идентификатор кодека : 2000
Продолжительность : 1 ч. 32 м.
Вид битрейта : Постоянный
Битрейт : 384 Кбит/сек
Каналы : 6 каналов
Расположение каналов : Front: L C R, Side: L R, LFE
Частота : 48,0 КГц
Битовая глубина : 16 бит
Метод сжатия : С потерями
Размер потока : 254 Мбайт (17%)
Выравнивание : Разделение по промежуткам
Продолжительность промежутка : 42 мс. (1,00 видеокадр)
Время предзагрузки промежутка : 500 мс.
Заголовок : Оригинал (Английский)

загрузка...
Правила, инструкции, FAQ!!!
Торрент  Добавлен [17 сен 2013, 08:25] Скачать торрент
Скачать торрент
[ Размер 15.17 КБ / Просмотров 4 ]

Статус  
 
Размер  1.45 ГБ
Приватный: Нет (DHT включён)
.torrent скачан  0
Как залить торрент? | Как скачать Torrent? | Как смотреть и слушать онлайн?  


     Отправить личное сообщение
   
Страница 1 из 1
Показать сообщения за:  Поле сортировки  
Начать новую тему Ответить на тему

   Похожие торренты   Автор   Ответы   Просмотры   Последнее сообщение 
В этой теме нет новых непрочитанных сообщений. Скачать торрент Проверен Последняя любовь мистера Моргана / Mr. Morgan's Last Love (2013) HDRip

в форуме Драмы, Мелодрамы, Размер: 1.45 ГБ, Здоровье: 100%

Anonymous

0
19|1

53
138

15 сен 2014, 11:33

Anonymous Перейти к последнему сообщению

В этой теме нет новых непрочитанных сообщений. Скачать торрент Любовь случается / Love Happens (Брэндон Кэмп / Brandon Camp) [2009 г., Комедия, HDRip-AVC]

в форуме 720p | 1080p, Размер: 2.15 ГБ, Здоровье: 0%

Anonymous

0
0|0

25
0

19 фев 2014, 11:40

Anonymous Перейти к последнему сообщению

В этой теме нет новых непрочитанных сообщений. Скачать торрент Проверен [480x360] Последняя любовь на Земле / Perfect Sense (2011) HDRip

в форуме Видео для смартфонов и КПК, Размер: 589.53 МБ, Здоровье: ???%

Anonymous

0
0|2

47
0

25 окт 2014, 23:28

Anonymous Перейти к последнему сообщению

В этой теме нет новых непрочитанных сообщений. Скачать торрент Шапито-шоу: Любовь и дружба / Уважение и сотрудничество [01-02 части из 02] (2011) HDRip

в форуме Комедии, Размер: 2.92 ГБ, Здоровье: 100%

Anonymous

0
24|0

40
30

07 янв 2014, 00:08

Anonymous Перейти к последнему сообщению

В этой теме нет новых непрочитанных сообщений. Скачать торрент Проверен Астрология для жизни - M. S. Husson / М.С. Хассон - LoveScopes: What Astrology Knows about You and the Ones You Love / Любовный гороскоп. Найди свою любовь с помощью астрологии [2011, PDF, RUS]

в форуме Астрология, Размер: 21.83 МБ, Здоровье: 0%

Anonymous

0
0|0

1
1

11 сен 2016, 23:20

Anonymous Перейти к последнему сообщению



Сейчас этот форум просматривают: нет зарегистрированных пользователей и гости: 1


Вы не можете начинать темы
Вы не можете отвечать на сообщения
Вы не можете редактировать свои сообщения
Вы не можете удалять свои сообщения
Вы не можете добавлять вложения

Перейти:  

!ВНИМАНИЕ!
 Ресурс не предоставляет электронные версии произведений, а занимается лишь коллекционированием и каталогизацией ссылок, присылаемых и публикуемых на форуме нашими читателями. Если вы являетесь правообладателем какого-либо представленного материала и не желаете чтобы ссылка на него находилась в нашем каталоге, свяжитесь с нами и мы незамедлительно удалим её. Файлы для обмена на трекере предоставлены пользователями сайта, и администрация не несёт ответственности за их содержание. Просьба не заливать файлы, защищенные авторскими правами, а также файлы нелегального содержания!