На всех торрентах на трекере установлена скидка на скачивание в размере 100 процентов(а).
 Возможность скачивания торрента НЕ зависит от ограничений при низком ратио, низком аплоаде, требуемом ратио или требуемом аплоаде.


Начать новую тему Ответить на тему
Статистика раздачи
Размер: 1.46 ГБ | Добавлен: 10 сен 2013, 23:09 | Скачали: 0
Сидеров: 0  [0 байт/сек]    Личеров: 0  [0 байт/сек]
Пред. тема | След. тема 

Автор
Сообщение

СообщениеДобавлено: 10 сен 2013, 23:09 

«Шесть френдов. Одна команда. Грандиозное шоу. Победа без вариантов!»




Страна: Великобритания / Vertigo Films
Жанр: комедия, семейный
Год выпуска: 2013
Продолжительность: 01:42:49

Перевод: Профессиональный (дублированный)
Оригинальная аудиодорожка: нет
Cубтитры: нет

Режиссер: Бен Грегор / Ben Gregor

В ролях: Тео Стивенсон, Акай Осей-Мэнсфилд. Флер Хаудейк, Доминик Герман-Дэй, Амелия Кларксон, Гамал Тосифа, Эшли Дженсен, Хью Дэннис, Кевин Бишоп, Эшли Уолтерс...

Роли дублировали: Лиза Мартиросова, Александр Дасевич

Описание: Герой фильма, энергичный и бойкий Этан, объединяется со скромным профессиональным стритдансером Джейденом для участия в очередном чемпионате по уличным танцам. Только своей победой ребята смогут спасти свой молодежный клуб от закрытия. И они сделают это, во что бы то ни стало…





Качество: BDRip / Blu-ray 3D 1080p
Формат: AVI

Видео: 720x384 (1.85:1), 23.976 fps, XVID ~1572 kbps avg, 0.237 bit/pixel
Аудио: Русский 48 kHz, AC3, 6 ch, 448.00 kbps Constant

Раздача от:
Общее
Полное имя : Ulichnye.tancy.3.2013.D.BDRip_[Youtracker]_by_avproh.avi
Формат : AVI
Формат/Информация : Audio Video Interleave
Размер файла : 1,46 Гбайт
Продолжительность : 1 ч. 42 м.
Общий поток : 2029 Кбит/сек
Программа кодирования : VirtualDubModRus 1.5.10.2 (build 2542/release)
Библиотека кодирования : VirtualDubMod build 2542/release

Видео
Идентификатор : 0
Формат : MPEG-4 Visual
Профиль формата : Advanced Simple@L5
Параметр BVOP формата : 1
Параметр QPel формата : Нет
Параметр GMC формата : Без точки перехода
Параметр матрицы формата : Выборочная
Идентификатор кодека : XVID
Идентификатор кодека/Подсказка : XviD
Продолжительность : 1 ч. 42 м.
Битрейт : 1572 Кбит/сек
Ширина : 720 пикселей
Высота : 384 пикселя
Соотношение сторон : 1,85:1
Частота кадров : 23,976 кадра/сек
Цветовое пространство : YUV
Субдискретизация насыщенности : 4:2:0
Битовая глубина : 8 бит
Тип развёртки : Прогрессивная
Метод сжатия : С потерями
Бит/(Пиксели*Кадры) : 0.237
Размер потока : 1,13 Гбайт (77%)
Библиотека кодирования : XviD 73

Аудио
Идентификатор : 1
Формат : AC-3
Формат/Информация : Audio Coding 3
Расширение режима : CM (complete main)
Параметр Endianness формата : Big
Идентификатор кодека : 2000
Продолжительность : 1 ч. 42 м.
Вид битрейта : Постоянный
Битрейт : 448 Кбит/сек
Каналы : 6 каналов
Расположение каналов : Front: L C R, Side: L R, LFE
Частота : 48,0 КГц
Битовая глубина : 16 бит
Метод сжатия : С потерями
Размер потока : 329 Мбайт (22%)
Выравнивание : Разделение по промежуткам
Продолжительность промежутка : 42 мс. (1,00 видеокадр)
Время предзагрузки промежутка : 500 мс.


загрузка...
Правила, инструкции, FAQ!!!
Торрент  Добавлен [10 сен 2013, 23:09] Скачать торрент
Скачать торрент
[ Размер 15.24 КБ / Просмотров 9 ]

Статус  
 
Размер  1.46 ГБ
Приватный: Нет (DHT включён)
.torrent скачан  0
Как залить торрент? | Как скачать Torrent? | Как смотреть и слушать онлайн?  


     Отправить личное сообщение
   
Страница 1 из 1
Показать сообщения за:  Поле сортировки  
Начать новую тему Ответить на тему

   Похожие торренты   Автор   Ответы   Просмотры   Последнее сообщение 
В этой теме нет новых непрочитанных сообщений. Скачать торрент Проверен Уличные танцы 2 в 3Д / Street Dance 2 3D (Макс Джива, Дания Пасквини / Max Giwa, Dania Pasquini) [2012, мелодрама, музыка, BDrip-AVC] Half OverUnder / Вертикальная анаморфная стереопара

в форуме HD-Video в 3D, Размер: 9.1 ГБ, Здоровье: 100%

Anonymous

0
12|4

33
0

11 июл 2014, 10:23

Anonymous Перейти к последнему сообщению

В этой теме нет новых непрочитанных сообщений. Скачать торрент Проверен Виноваты звезды / The Fault in Our Stars (2014) BDRip-AVC | A

в форуме Драмы, Мелодрамы, Размер: 744.36 МБ, Здоровье: 100%

Anonymous

0
33|1

54
1370

07 сен 2014, 12:00

Anonymous Перейти к последнему сообщению

В этой теме нет новых непрочитанных сообщений. Скачать торрент Проверен Виноваты звезды / The Fault in Our Stars (2014) BDRip 1080p | Extended Cut | А

в форуме 720p | 1080p, Размер: 10.61 ГБ, Здоровье: 100%

Anonymous

0
44|6

34
1381

07 сен 2014, 12:04

Anonymous Перейти к последнему сообщению

В этой теме нет новых непрочитанных сообщений. Скачать торрент Проверен Виноваты звезды / The Fault in Our Stars (2014) BDRip 720p | Матвеев

в форуме 720p | 1080p, Размер: 3.79 ГБ, Здоровье: 55%

Anonymous

0
29|52

67
19

03 сен 2014, 16:09

Anonymous Перейти к последнему сообщению

В этой теме нет новых непрочитанных сообщений. Скачать торрент Проверен Уличные танцы 3Д / Street Dance (StreetDance) 3D (Макс Джива, Дания Пасквини / Max Jiva, Denmark Pasquini) [2010 г., Великобритания, мелодрама, музыка, BDRemux 1080p] BD3D

в форуме HD-Video в 3D, Размер: 33.88 ГБ, Здоровье: 100%

Anonymous

0
5|1

29
0

11 июл 2014, 10:21

Anonymous Перейти к последнему сообщению



Сейчас этот форум просматривают: нет зарегистрированных пользователей и гости: 1


Вы не можете начинать темы
Вы не можете отвечать на сообщения
Вы не можете редактировать свои сообщения
Вы не можете удалять свои сообщения
Вы не можете добавлять вложения

Перейти:  

!ВНИМАНИЕ!
 Ресурс не предоставляет электронные версии произведений, а занимается лишь коллекционированием и каталогизацией ссылок, присылаемых и публикуемых на форуме нашими читателями. Если вы являетесь правообладателем какого-либо представленного материала и не желаете чтобы ссылка на него находилась в нашем каталоге, свяжитесь с нами и мы незамедлительно удалим её. Файлы для обмена на трекере предоставлены пользователями сайта, и администрация не несёт ответственности за их содержание. Просьба не заливать файлы, защищенные авторскими правами, а также файлы нелегального содержания!