На всех торрентах на трекере установлена скидка на скачивание в размере 100 процентов(а).
 Возможность скачивания торрента НЕ зависит от ограничений при низком ратио, низком аплоаде, требуемом ратио или требуемом аплоаде.


Начать новую тему Ответить на тему
Статистика раздачи
Размер: 1.46 ГБ | Добавлен: 11 авг 2013, 20:00 | Скачали: 243
Сидеров: 159  [0 байт/сек]    Личеров: 10  [0 байт/сек]
Пред. тема | След. тема 

Автор
Сообщение

СообщениеДобавлено: 11 авг 2013, 20:00 

Год выпуска: 2001
Страна: CША, Франция
Жанр: Комедия
Продолжительность: 01:24:26
Перевод: Профессиональный (полное дублирование)
Русские субтитры: нет

Режиссер: Жан-Мари Пуарэ / Jean-Marie Poire

В ролях: Жан Рено, Кристиан Клавье, Кристина Эпплгэйт, Мэттью Росс, Тэра Рид, Бриджитт Уилсон

Описание: Два чудака из средневековой Франции, виконт Тибо и его слуга Андре, покорившие зрителей всего мира в легендарных комедиях "Коридоры времени" и "Коридоры времени 2", снова на экране! На этот раз двум героям предстоит отправиться в современные Соединенные Штаты Америки, чтобы в результате спасти от смерти возлюбленную Тибо Розалинд. В Штатах благородный рыцарь и его слуга попадают в такое количество сумасбродных и безумно смешных ситуаций, что их хватило бы на целую дюжину комедий...



Качество: DVDRip
Формат: AVI
Видео кодек: XviD
Аудио кодек: AC3
Видео: 720x304 (2.37:1), 25 fps, XviD build 50 ~2018 kbps avg, 0.37 bit/pixel
Аудио: 48 kHz, AC3 Dolby Digital, 3/2 (L,C,R,l,r) + LFE ch, ~448 kbps



D:Мои рипыJUST_VISITING_DVDRip.1.45gb.by_dexter_lex.avi
General
Complete name : D:Мои рипыJUST_VISITING_DVDRip.1.45gb.by_dexter_lex.avi
Format : AVI
Format/Info : Audio Video Interleave
File size : 1.46 GiB
Duration : 1h 24mn
Overall bit rate : 2 476 Kbps
Writing application : VirtualDubMod 1.5.10.3 | http://www.virtualdub-fr.org || (build 2550/release)
Writing library : VirtualDubMod build 2550/release
Video #0
ID : 0
Format : MPEG-4 Visual
Format profile : Advanced Simple@L5
Format settings, BVOP : 1
Format settings, QPel : No
Format settings, GMC : No warppoints
Format settings, Matrix : Custom
Codec ID : XVID
Codec ID/Hint : XviD
Duration : 1h 24mn
Bit rate : 2 019 Kbps
Width : 720 pixels
Height : 304 pixels
Display aspect ratio : 2.35:1
Frame rate : 25.000 fps
Color space : YUV
Chroma subsampling : 4:2:0
Bit depth : 8 bits
Scan type : Progressive
Compression mode : Lossy
Bits/(Pixel*Frame) : 0.369
Stream size : 1.19 GiB (82%)
Writing library : XviD 1.2.1 (UTC 2008-12-04)
Audio #1
ID : 1
Format : AC-3
Format/Info : Audio Coding 3
Mode extension : CM (complete main)
Codec ID : 2000
Duration : 1h 24mn
Bit rate mode : Constant
Bit rate : 448 Kbps
Channel(s) : 6 channels
Channel positions : Front: L C R, Side: L R, LFE
Sampling rate : 48.0 KHz
Bit depth : 16 bits
Compression mode : Lossy
Stream size : 270 MiB (18%)
Alignment : Split accross interleaves
Interleave, duration : 40 ms (1.00 video frame)
Interleave, preload duration : 500 ms

загрузка...
Правила, инструкции, FAQ!!!
Торрент  Добавлен [11 авг 2013, 20:00] Скачать торрент
Скачать торрент
[ Размер 15.22 КБ / Просмотров 7 ]

Статус  
 
Размер  1.46 ГБ
Приватный: Нет (DHT включён)
.torrent скачан  243
Как залить торрент? | Как скачать Torrent? | Как смотреть и слушать онлайн?  


     Отправить личное сообщение
   
Страница 1 из 1
Показать сообщения за:  Поле сортировки  
Начать новую тему Ответить на тему

   Похожие торренты   Автор   Ответы   Просмотры   Последнее сообщение 
В этой теме нет новых непрочитанных сообщений. Скачать торрент Проверен Сделано в Америке / Made in America (1993) DVDRip

в форуме Комедии, Размер: 1.39 ГБ, Здоровье: 100%

Anonymous

0
18|9

59
0

10 сен 2014, 10:07

Anonymous Перейти к последнему сообщению

В этой теме нет новых непрочитанных сообщений. Скачать торрент Проверен Фоменко В.Н. - Земля, какой мы ее не знаем: Пришельцы уже давно контролируют Землю! [2001, PDF/DOC, RUS]

в форуме Эзотерика, гадания, магия, фен-шуй, Размер: 53.56 МБ, Здоровье: 100%

Anonymous

0
2|1

20
2

28 авг 2016, 21:55

Anonymous Перейти к последнему сообщению

В этой теме нет новых непрочитанных сообщений. Скачать торрент Проверен [VIDEO] Пришельцы 2: Коридоры Времени / Les couloirs du temps: Les visiteurs II (Жан-Мари Пуаре / Jean-Marie Poiré) [1998, фантастика, комедия, DVDRip] [MP4, 640x]

в форуме Видео для смартфонов и КПК, Размер: 977.08 МБ, Здоровье: 100%

Anonymous

0
19|8

92
2

02 авг 2014, 17:05

Anonymous Перейти к последнему сообщению

В этой теме нет новых непрочитанных сообщений. Скачать торрент Гарри Грей | Однажды в Америке [2011] [FB2]

в форуме Детективы и Боевики, Размер: 1.69 МБ, Здоровье: 100%

Anonymous

0
2|1

39
1

18 апр 2014, 00:25

Anonymous Перейти к последнему сообщению

В этой теме нет новых непрочитанных сообщений. Скачать торрент Проверен Гарри Грей - Однажды в Америке [2011, PDF/DjVu, RUS]

в форуме Детективы и Боевики, Размер: 19.38 МБ, Здоровье: 100%

Anonymous

0
12|4

1
0

09 сен 2016, 00:07

Anonymous Перейти к последнему сообщению



Сейчас этот форум просматривают: нет зарегистрированных пользователей и гости: 1


Вы не можете начинать темы
Вы не можете отвечать на сообщения
Вы не можете редактировать свои сообщения
Вы не можете удалять свои сообщения
Вы не можете добавлять вложения

Перейти:  

!ВНИМАНИЕ!
 Ресурс не предоставляет электронные версии произведений, а занимается лишь коллекционированием и каталогизацией ссылок, присылаемых и публикуемых на форуме нашими читателями. Если вы являетесь правообладателем какого-либо представленного материала и не желаете чтобы ссылка на него находилась в нашем каталоге, свяжитесь с нами и мы незамедлительно удалим её. Файлы для обмена на трекере предоставлены пользователями сайта, и администрация не несёт ответственности за их содержание. Просьба не заливать файлы, защищенные авторскими правами, а также файлы нелегального содержания!