На всех торрентах на трекере установлена скидка на скачивание в размере 100 процентов(а).
 Возможность скачивания торрента НЕ зависит от ограничений при низком ратио, низком аплоаде, требуемом ратио или требуемом аплоаде.


Начать новую тему Ответить на тему
Статистика раздачи
Размер: 701.93 МБ | Добавлен: 13 июл 2013, 20:22 | Скачали: 0
Сидеров: 0  [0 байт/сек]    Личеров: 0  [0 байт/сек]
Пред. тема | След. тема 

Автор
Сообщение

СообщениеДобавлено: 13 июл 2013, 20:22 

Страна: Великобритания
Жанр: Комедия, Драма
Год выпуска: 2011
Продолжительность: 01:26:12

Перевод: Профессиональный (двухголосый закадровый) студия Elrom
Cубтитры: нет
Оригинальная аудиодорожка: нет

Режиссер: Найал МакКормик / Niall MacCormick

В ролях: Джессика Браун-Финдли /Jessica Brown Findlay/, Гарри Тредэвэй /Harry Treadaway/, Джозеф Алтин /Josef Altin/, Фелисити Джонс /Felicity Jones/, Джулия Ормонд /Julia Ormond/, Джастин Эдвардс /Justin Edwards/, Себастьян Кох /Sebastian Koch/, Дэвид Кан /David Cahn/, Шила Монахэн /Sheila Monaghan/, Кэти Оверд /Katie Overd/

Описание: История об Эмилии, привлекательной, сексуальной и весьма умной девушке. Она устраивается на работу в семейный отель, где быстро сходится с дочерью хозяев, своей ровесницей, семнадцатилетней Бет. Попутно героиня заводит интрижку с ее отцом, писателем Джонатаном. Этот роман будет иметь для всех героев фильма разрушительные последствия…

Сэмпл: http://multi-up.com/883139

Качество видео: DVDRip (Albatross 2011 DVDRIP Xvid-BHRG.avi)
Формат видео: AVI

Видео: 640x256 (2.50:1), 25 fps, XviD build 50 ~1000 kbps avg, 0.24 bit/pixel
Аудио: 48 kHz, MPEG Layer 3, 2 ch, ~128.00 kbps avg
General
Complete name : C:Albatros.11_25KAlbatros.2011.DVDrip.XviD.Rus_25KADR.avi
Format : AVI
Format/Info : Audio Video Interleave
File size : 702 MiB
Duration : 1h 26mn
Overall bit rate : 1 138 Kbps
Movie name : Albatros.2011
Original source form/Distributed by : Albatross.2011.DVDRIP.Xvid-BHRG.avi
Genre : Drama, Comedy
Copyright : 25KADR
Comment : DVO (Elrom studio)

Video
ID : 0
Format : MPEG-4 Visual
Format profile : Advanced Simple@L5
Format settings, BVOP : 2
Format settings, QPel : No
Format settings, GMC : No warppoints
Format settings, Matrix : Default (H.263)
Codec ID : XVID
Codec ID/Hint : XviD
Duration : 1h 26mn
Bit rate : 1 001 Kbps
Width : 640 pixels
Height : 256 pixels
Display aspect ratio : 2.500
Frame rate : 25.000 fps
Color space : YUV
Chroma subsampling : 4:2:0
Bit depth : 8 bits
Scan type : Progressive
Compression mode : Lossy
Bits/(Pixel*Frame) : 0.244
Stream size : 617 MiB (88%)
Writing library : XviD 1.2.1 (UTC 2008-12-04)

Audio
ID : 1
Format : MPEG Audio
Format version : Version 1
Format profile : Layer 3
Mode : Joint stereo
Mode extension : MS Stereo
Codec ID : 55
Codec ID/Hint : MP3
Duration : 1h 26mn
Bit rate mode : Constant
Bit rate : 128 Kbps
Channel(s) : 2 channels
Sampling rate : 48.0 KHz
Compression mode : Lossy
Stream size : 78.9 MiB (11%)
Alignment : Aligned on interleaves
Interleave, duration : 40 ms (1.00 video frame)
Interleave, preload duration : 504 ms
Language : Russian




загрузка...
Правила, инструкции, FAQ!!!
Торрент  Добавлен [13 июл 2013, 20:22] Скачать торрент
Скачать торрент
[ Размер 14.18 КБ / Просмотров 9 ]

Статус  
 
Размер  701.93 МБ
Приватный: Нет (DHT включён)
.torrent скачан  0
Как залить торрент? | Как скачать Torrent? | Как смотреть и слушать онлайн?  


     Отправить личное сообщение
   
Страница 1 из 1
Показать сообщения за:  Поле сортировки  
Начать новую тему Ответить на тему

   Похожие торренты   Автор   Ответы   Просмотры   Последнее сообщение 
В этой теме нет новых непрочитанных сообщений. Скачать торрент Проверен (Symphonic Prog) Albatross - Albatross (1976) - 2004, FLAC (tracks+.cue), lossless

в форуме Progressive & Art-Rock, Размер: 220.29 МБ, Здоровье: 100%

Anonymous

0
1|0

6
1

01 сен 2016, 17:29

Anonymous Перейти к последнему сообщению

В этой теме нет новых непрочитанных сообщений. Скачать торрент Проверен (Шансон, Военная песня) Аркадий Сержич и джаз-бэнд Альбатрос - Окопные песни - 2015, MP3, 320 kbps

в форуме Шансон|Авторская песня, Размер: 87.25 МБ, Здоровье: 0%

Anonymous

0
0|0

0
0

05 ноя 2016, 18:32

Anonymous Перейти к последнему сообщению

В этой теме нет новых непрочитанных сообщений. Скачать торрент Проверен Phase - Albatross (2014) [MP3|320 кб/с]<Drum & Bass>

в форуме Drum & Bass, Размер: 63.11 МБ, Здоровье: 100%

Anonymous

0
1|1

12
0

17 апр 2015, 20:48

Anonymous Перейти к последнему сообщению

В этой теме нет новых непрочитанных сообщений. Скачать торрент Проверен (Hard Rock/Metal) King Albatross - Volym 1 - 2016, MP3, 320 kbps

в форуме Classic Rock & Hard Rock, Размер: 73.3 МБ, Здоровье: 0%

Anonymous

0
0|0

0
0

13 ноя 2016, 15:40

Anonymous Перейти к последнему сообщению

В этой теме нет новых непрочитанных сообщений. Скачать торрент Проверен Leo Rojas - Albatross (2013) [FLAC|Lossless]<New age, Instrumental, Native american, Panflute>

в форуме Instrumental/New Age/Meditative/Relax, Размер: 424 МБ, Здоровье: 100%

Гость

0
47|1

42
4

26 дек 2015, 22:26

Гость Перейти к последнему сообщению



Сейчас этот форум просматривают: нет зарегистрированных пользователей и гости: 1


Вы не можете начинать темы
Вы не можете отвечать на сообщения
Вы не можете редактировать свои сообщения
Вы не можете удалять свои сообщения
Вы не можете добавлять вложения

Перейти:  

!ВНИМАНИЕ!
 Ресурс не предоставляет электронные версии произведений, а занимается лишь коллекционированием и каталогизацией ссылок, присылаемых и публикуемых на форуме нашими читателями. Если вы являетесь правообладателем какого-либо представленного материала и не желаете чтобы ссылка на него находилась в нашем каталоге, свяжитесь с нами и мы незамедлительно удалим её. Файлы для обмена на трекере предоставлены пользователями сайта, и администрация не несёт ответственности за их содержание. Просьба не заливать файлы, защищенные авторскими правами, а также файлы нелегального содержания!