На всех торрентах на трекере установлена скидка на скачивание в размере 100 процентов(а).
 Возможность скачивания торрента НЕ зависит от ограничений при низком ратио, низком аплоаде, требуемом ратио или требуемом аплоаде.


Начать новую тему Ответить на тему
Статистика раздачи
Размер: 1.46 ГБ | Добавлен: 29 май 2013, 15:52 | Скачали: 0
Сидеров: 0  [0 байт/сек]    Личеров: 0  [0 байт/сек]
Пред. тема | След. тема 

Автор
Сообщение

СообщениеДобавлено: 29 май 2013, 15:52 

Страна: США
Жанр: Комедия, Мелодрама
Год выпуска: 2006
Продолжительность: 01:46:27
Перевод: Профессиональный (дублированный)
Cубтитры: нет

Режиссер: Пейтон Рид /Peyton Reed
Сценарий: Джереми Гарелик / Jeremy Garelick, Джей Лавендер / Jay Lavender, Винс Вон / Vince Vaughn
Продюсер: Стюарт М. Бессер / Stuart M. Besser, Питер Биллингсли / Peter Billingsley, Джереми Гарелик / Jeremy Garelick
Оператор: Эрик Алан Эдвардс / Eric Alan Edwards
Композитор: Джон Брайон / Jon Brion
Художник: Эндрю Лоус / Andrew Laws , Дэвид Сэндфер / Дэвид Сэндфер, Кэрол Одитц / Carol Oditz
Монтаж: Дэн Лебентал / Dan Lebental, Дэвид Розенблюм / David Rosenblum

В фильме снимались: Винс Вон / Vince Vaughn, Дженнифер Энистон / Jennifer Aniston, Джой Лорен Адамс / Joey Lauren Adams, Коул Хаузер / Cole Hauser, Джон Фавро / Jon Favreau, Джейсон Бэйтман / Jason Bateman

Роли дублировали: Юрий Деркач (Gary Grobowski ), Лариса Некипелова (Brooke Meyers), Ольга Зубкова (Addie), Сергей Быстрицкий (Lupus Grobowski), Олег Куценко (Johnny О), Андрей Казанцев (Riggleman), Людмила Ильина (Marilyn Dean), Илья Бледный (Christopher) и др.

Вкратце: Когда Брук и Гэри решили разойтись, все казалось простым и понятным. Не сошлись характерами. Такое бывает. И даже сплошь и рядом. Однако ни тот, ни другой не захотел торопиться и покидать насиженное местечко первым. Пауза затянулась.
С обеих сторон подтянулись друзья и доверенные лица. Началась война. В бывшем семействе. Или не в бывшем? Может быть, развод — это просто способ сказать «я тебя люблю»?

Качество видео: HDRip
Формат видео: AVI
Видео кодек: XviD
Аудио кодек: AC3
Видео: 720x384 (1.88:1), 23.976 fps, XviD build 50 ~1565 kbps avg, 0.24 bit/pixel
Аудио: 48 kHz, AC3 Dolby Digital, 3/2 (L,C,R,l,r) + LFE ch, ~384.00 kbps avg

Раздача от:


D:Razvod.po-amerikanski.2006.HDRip.DUB.[YTN]_by_dexter_lex.avi
General
Complete name : D:Razvod.po-amerikanski.2006.HDRip.DUB.[YTN]_by_dexter_lex.avi
Format : AVI
Format/Info : Audio Video Interleave
File size : 1.46 GiB
Duration : 1h 46mn
Overall bit rate : 1 959 Kbps
Writing application : VirtualDubMod 1.5.10.3 | virtualdub-fr.org || (build 2550/release)
Writing library : VirtualDubMod build 2550/release
Video #0
ID : 0
Format : MPEG-4 Visual
Format profile : Advanced Simple@L5
Format settings, BVOP : 1
Format settings, QPel : No
Format settings, GMC : No warppoints
Format settings, Matrix : Custom
Codec ID : XVID
Codec ID/Hint : XviD
Duration : 1h 46mn
Bit rate : 1 565 Kbps
Width : 720 pixels
Height : 384 pixels
Display aspect ratio : 1.88:1
Frame rate : 23.976 fps
Color space : YUV
Chroma subsampling : 4:2:0
Bit depth : 8 bits
Scan type : Progressive
Compression mode : Lossy
Bits/(Pixel*Frame) : 0.236
Stream size : 1.16 GiB (80%)
Writing library : XviD 50
Audio #1
ID : 1
Format : AC-3
Format/Info : Audio Coding 3
Mode extension : CM (complete main)
Format settings, Endianness : Big
Codec ID : 2000
Duration : 1h 46mn
Bit rate mode : Constant
Bit rate : 384 Kbps
Channel(s) : 6 channels
Channel positions : Front: L C R, Side: L R, LFE
Sampling rate : 48.0 KHz
Bit depth : 16 bits
Compression mode : Lossy
Stream size : 292 MiB (20%)
Alignment : Split accross interleaves
Interleave, duration : 42 ms (1.00 video frame)
Interleave, preload duration : 500 ms
загрузка...
Правила, инструкции, FAQ!!!
Торрент  Добавлен [29 май 2013, 15:52] Скачать торрент
Скачать торрент
[ Размер 15.18 КБ / Просмотров 5 ]

Статус  
 
Размер  1.46 ГБ
Приватный: Нет (DHT включён)
.torrent скачан  0
Как залить торрент? | Как скачать Torrent? | Как смотреть и слушать онлайн?  


     Отправить личное сообщение
   
Страница 1 из 1
Показать сообщения за:  Поле сортировки  
Начать новую тему Ответить на тему

   Похожие торренты   Автор   Ответы   Просмотры   Последнее сообщение 
В этой теме нет новых непрочитанных сообщений. Скачать торрент МОШЕННИКИ (Развод по-американски) / SERVING SARA (Реджинальд Хадлин) [2002 г., Авантюрная комедия, DVDRip] (3 перевода)

в форуме Комедии, Размер: 1.53 ГБ, Здоровье: 0%

Anonymous

0
0|0

54
0

24 апр 2014, 14:06

Anonymous Перейти к последнему сообщению

В этой теме нет новых непрочитанных сообщений. Скачать торрент Афера по-американски / American Hustle (2013) HDRip | D | Чистый звук

в форуме Драмы, Мелодрамы, Размер: 1.45 ГБ, Здоровье: 100%

Anonymous

0
31|0

59
1

15 мар 2014, 13:28

Anonymous Перейти к последнему сообщению

В этой теме нет новых непрочитанных сообщений. Скачать торрент Проверен Развод Надера и Симин / A Separation / Jodaeiye Nader az Simin (2011) HDRip | Лицензия

в форуме Драмы, Мелодрамы, Размер: 1.45 ГБ, Здоровье: 100%

Anonymous

0
19|0

44
83

01 авг 2014, 15:09

Anonymous Перейти к последнему сообщению

В этой теме нет новых непрочитанных сообщений. Скачать торрент Проверен На гребне волны / Point Break (2015) HDRip | Лицензия

в форуме Боевики, Размер: 1.46 ГБ, Здоровье: 100%

Anonymous

0
1041|16

82
27

18 мар 2016, 20:10

Anonymous Перейти к последнему сообщению

В этой теме нет новых непрочитанных сообщений. Скачать торрент Проверен (Freestyle) [LP] [16/44] VA - Let's Break - Super Disco Break-Dancing - 1983, FLAC (tracks)

в форуме Электронная музыка (оцифровки), Размер: 228.18 МБ, Здоровье: ???%

Anonymous

0
0|1

6
0

15 сен 2016, 20:07

Anonymous Перейти к последнему сообщению



Сейчас этот форум просматривают: нет зарегистрированных пользователей и гости: 1


Вы не можете начинать темы
Вы не можете отвечать на сообщения
Вы не можете редактировать свои сообщения
Вы не можете удалять свои сообщения
Вы не можете добавлять вложения

Перейти:  

!ВНИМАНИЕ!
 Ресурс не предоставляет электронные версии произведений, а занимается лишь коллекционированием и каталогизацией ссылок, присылаемых и публикуемых на форуме нашими читателями. Если вы являетесь правообладателем какого-либо представленного материала и не желаете чтобы ссылка на него находилась в нашем каталоге, свяжитесь с нами и мы незамедлительно удалим её. Файлы для обмена на трекере предоставлены пользователями сайта, и администрация не несёт ответственности за их содержание. Просьба не заливать файлы, защищенные авторскими правами, а также файлы нелегального содержания!