На всех торрентах на трекере установлена скидка на скачивание в размере 100 процентов(а).
 Возможность скачивания торрента НЕ зависит от ограничений при низком ратио, низком аплоаде, требуемом ратио или требуемом аплоаде.


Начать новую тему Ответить на тему
Статистика раздачи
Размер: 1.46 ГБ | Добавлен: 25 май 2013, 19:34 | Скачали: 0
Сидеров: 0  [0 байт/сек]    Личеров: 0  [0 байт/сек]
Пред. тема | След. тема 

Автор
Сообщение

СообщениеДобавлено: 25 май 2013, 19:34 

Год выпуска: 2003
Страна: США, Великобритания
Жанр: комедия, мелодрама
Продолжительность: 01:40:56.680 (151417 frames)
Перевод: Профессиональный (многоголосый, закадровый)
Русские субтитры: нет

Режиссер: Крэйг Фергюсон / Craig Ferguson

В фильме снимались: Крэйг Фергюсон, Шарлотта Черч, Джемма Рэдгрейв, Стефен Нунан, Ральф Браун, Иэн МакНис, Имелда Стонтон, Энтони Хэд, Джосс Экленд, Джозеф Алесси

Вкратце: Пол — рок-звезда. Он живет в одиночестве, накачивая себя спиртным и гоняя по дому на «Харлее». Однажды, напившись до безумия, Пол вылетел из окна и попал в больницу. Но не случись эта беда, Пол так бы и не узнал, что у него есть дочь — плод любовного приключения с Ребеккой, одной из его многочисленных поклонниц. В те времена Пол находился на пике славы. Его жизнь была нескончаемой чередой концертов, записей, вечеринок, золотых дисков… Пол решает увидеть дочь и приезжает к Ребекке. Оливии исполнилось 16, она поет и у нее просто ангельский голос. Правда она не имеет ни малейшего понятия о том, кто ее отец. И вот теперь Полу и Оливии предстоит познакомиться друг с другом…

Качество: DVDRip
Формат: AVI
Видео кодек: XviD
Аудио кодек: AC3
Видео: 720x544 (1.32:1), 25 fps, XviD build 50 ~1609 kbps avg, 0.16 bit/pixel
Аудио: 48 kHz, AC3 Dolby Digital, 3/2 (L,C,R,l,r) + LFE ch, ~448.00 kbps avg

General
Complete name : D:\001 МОИ РАЗДАЧИЯ буду рядом 1,46ya_budu_ryadom_1.46_[torrents.ru]_by_bm11.avi
Format : AVI
Format/Info : Audio Video Interleave
File size : 1.46 GiB
Duration : 1h 40mn
Overall bit rate : 2 068 Kbps
Writing application : VirtualDubMod 1.5.10.2 (build 2540/release)
Writing library : VirtualDubMod build 2540/release
Video
Format : MPEG-4 Visual
Format profile : Streaming Video@L1
Format settings, BVOP : Yes
Format settings, QPel : No
Format settings, GMC : No warppoints
Format settings, Matrix : Custom
Codec ID : XVID
Codec ID/Hint : XviD
Duration : 1h 40mn
Bit rate : 1 610 Kbps
Width : 720 pixels
Height : 544 pixels
Display aspect ratio : 4/3
Frame rate : 25.000 fps
Resolution : 24 bits
Colorimetry : 4:2:0
Scan type : Progressive
Bits/(Pixel*Frame) : 0.164
Stream size : 1.14 GiB (78%)
Writing library : XviD 50
Audio
Format : AC-3
Format/Info : Audio Coding 3
Codec ID : 2000
Duration : 1h 40mn
Bit rate mode : Constant
Bit rate : 448 Kbps
Channel(s) : 6 channels
Channel positions : Front: L C R, Surround: L R, LFE
Sampling rate : 48.0 KHz
Stream size : 323 MiB (22%)
Alignment : Split accross interleaves
Interleave, duration : 40 ms (1.00 video frame)
Interleave, preload duration : 500 ms
загрузка...
Правила, инструкции, FAQ!!!
Торрент  Добавлен [25 май 2013, 19:34] Скачать торрент
Скачать торрент
[ Размер 15.01 КБ / Просмотров 8 ]

Статус  
 
Размер  1.46 ГБ
Приватный: Нет (DHT включён)
.torrent скачан  0
Как залить торрент? | Как скачать Torrent? | Как смотреть и слушать онлайн?  


     Отправить личное сообщение
   
Страница 1 из 1
Показать сообщения за:  Поле сортировки  
Начать новую тему Ответить на тему

   Похожие торренты   Автор   Ответы   Просмотры   Последнее сообщение 
В этой теме нет новых непрочитанных сообщений. Скачать торрент Проверен (Pop) Кристал(Kristal) - Буду рядом - 2008, MP3, 320 kbps

в форуме Отечественная музыка, Размер: 174.34 МБ, Здоровье: 100%

Гость

0
1|0

3
0

30 июл 2016, 14:46

Гость Перейти к последнему сообщению

В этой теме нет новых непрочитанных сообщений. Скачать торрент Проверен (Progressive Nu-Metal) Рядом С Птицей - Рядом С Птицей - 2008, MP3, 192 kbps

в форуме Русский Рок, Размер: 59.36 МБ, Здоровье: 0%

Anonymous

0
0|0

1
0

21 авг 2016, 13:57

Anonymous Перейти к последнему сообщению

В этой теме нет новых непрочитанных сообщений. Скачать торрент Проверен Удивительное рядом - Юрьев В. - В тонких мирах [1998, PDF, RUS]

в форуме Эзотерика, гадания, магия, фен-шуй, Размер: 25.55 МБ, Здоровье: 100%

Anonymous

0
4|0

1
1

28 авг 2016, 22:13

Anonymous Перейти к последнему сообщению

В этой теме нет новых непрочитанных сообщений. Скачать торрент Проверен (Pop-punk) Одна На Двоих - Она где-то рядом - 2009, MP3 (tracks), VBR 192-320 kbps

в форуме Русский Рок, Размер: 50.31 МБ, Здоровье: 0%

Anonymous

0
0|0

9
0

22 авг 2016, 01:46

Anonymous Перейти к последнему сообщению

В этой теме нет новых непрочитанных сообщений. Скачать торрент Проверен (Шансон) Семён Ланцет - Со мной сегодня рядом ты - 2015, MP3, 320 kbps

в форуме Шансон|Авторская песня, Размер: 96.34 МБ, Здоровье: 0%

Anonymous

0
0|0

0
0

05 ноя 2016, 20:07

Anonymous Перейти к последнему сообщению



Сейчас этот форум просматривают: нет зарегистрированных пользователей и гости: 1


Вы не можете начинать темы
Вы не можете отвечать на сообщения
Вы не можете редактировать свои сообщения
Вы не можете удалять свои сообщения
Вы не можете добавлять вложения

Перейти:  

!ВНИМАНИЕ!
 Ресурс не предоставляет электронные версии произведений, а занимается лишь коллекционированием и каталогизацией ссылок, присылаемых и публикуемых на форуме нашими читателями. Если вы являетесь правообладателем какого-либо представленного материала и не желаете чтобы ссылка на него находилась в нашем каталоге, свяжитесь с нами и мы незамедлительно удалим её. Файлы для обмена на трекере предоставлены пользователями сайта, и администрация не несёт ответственности за их содержание. Просьба не заливать файлы, защищенные авторскими правами, а также файлы нелегального содержания!