На всех торрентах на трекере установлена скидка на скачивание в размере 100 процентов(а).
 Возможность скачивания торрента НЕ зависит от ограничений при низком ратио, низком аплоаде, требуемом ратио или требуемом аплоаде.


Начать новую тему Ответить на тему
Статистика раздачи
Размер: 1.46 ГБ | Добавлен: 24 май 2013, 10:12 | Скачали: 0
Сидеров: 0  [0 байт/сек]    Личеров: 0  [0 байт/сек]
Пред. тема | След. тема 

Автор
Сообщение

СообщениеДобавлено: 24 май 2013, 10:12 

Страна: Франция, Германия, Бельгия
Производство: Alvy Productions, BNP Paribas Fortis Film Fund, In Production
Жанр: комедия
Год выпуска: 2012
Продолжительность: 01:31:40

Перевод: Профессиональный (многоголосый закадровый)
Оригинальная аудиодорожка: нет
Cубтитры: нет

Режиссер: Жюли Дельпи / Julie Delpy

В фильме снимались:
Крис Рок, Жюли Дельпи, Альберт Дельпи, Алексия Ландо, Александр Наон, Кейт Бёртон, Дилан Бейкер, Даниэль Брюль, Тален Рут Райли, Оуэн Шипман...

Вкратце:
Марион, теперь счастливо живущая с Мингусом в их нью-йоркской квартире, нашла все, что ей было так необходимо, отношения, свой дом, успешную карьеру и себя саму в опасности, когда ее отец, сестра и экс-бойфренд решили к ним заглянуть из Франции…





Исходник: DVD9 R5
Тип релиза: DVDRip
Контейнер: AVI

Видео: 720x384 (1,875:1), 25 fps, XviD ~ 1817 kbps avg, 0.263 bit/pixel
Аудио: 48 kHz, Dolby AC3 5.1, 448 kbps

Раздача от:
Общее
Полное имя : 2.dnja.v.N'ju-Jorke.2012.DVDRip_[Youtracker]_by_AVP Studio.avi
Формат : AVI
Формат/Информация : Audio Video Interleave
Размер файла : 1,46 Гбайт
Продолжительность : 1 ч. 31 м.
Общий поток : 2275 Кбит/сек
Программа кодирования : VirtualDubModRus 1.5.10.2 (build 2542/release)
Библиотека кодирования : VirtualDubMod build 2542/release

Видео
Идентификатор : 0
Формат : MPEG-4 Visual
Профиль формата : Advanced Simple@L5
Параметр BVOP формата : 1
Параметр QPel формата : Нет
Параметр GMC формата : Без точки перехода
Параметр матрицы формата : Выборочная
Идентификатор кодека : XVID
Идентификатор кодека/Подсказка : XviD
Продолжительность : 1 ч. 31 м.
Битрейт : 1817 Кбит/сек
Ширина : 720 пикселей
Высота : 384 пикселя
Соотношение сторон : 1,875
Частота кадров : 25,000 кадров/сек
Цветовое пространство : YUV
Субдискретизация насыщенности : 4:2:0
Битовая глубина : 8 бит
Тип развёртки : Прогрессивная
Метод сжатия : С потерями
Бит/(Пиксели*Кадры) : 0.263
Размер потока : 1,16 Гбайт (80%)
Библиотека кодирования : XviD 65

Аудио
Идентификатор : 1
Формат : AC-3
Формат/Информация : Audio Coding 3
Расширение режима : CM (complete main)
Идентификатор кодека : 2000
Продолжительность : 1 ч. 31 м.
Вид битрейта : Постоянный
Битрейт : 448 Кбит/сек
Каналы : 6 каналов
Расположение каналов : Front: L C R, Side: L R, LFE
Частота : 48,0 КГц
Битовая глубина : 16 бит
Метод сжатия : С потерями
Размер потока : 294 Мбайт (20%)
Выравнивание : Разделение по промежуткам
Продолжительность промежутка : 40 мс. (1,00 видеокадр)
Время предзагрузки промежутка : 500 мс


загрузка...
Правила, инструкции, FAQ!!!
Торрент  Добавлен [24 май 2013, 10:12] Скачать торрент
Скачать торрент
[ Размер 15.23 КБ / Просмотров 15 ]

Статус  
 
Размер  1.46 ГБ
Приватный: Нет (DHT включён)
.torrent скачан  0
Как залить торрент? | Как скачать Torrent? | Как смотреть и слушать онлайн?  


     Отправить личное сообщение
   
Страница 1 из 1
Показать сообщения за:  Поле сортировки  
Начать новую тему Ответить на тему

   Похожие торренты   Автор   Ответы   Просмотры   Последнее сообщение 
В этой теме нет новых непрочитанных сообщений. Скачать торрент Проверен [iPad] Два дня в Нью-Йорке / 2 Days in New York (Жюли Дельпи/ Julie Delpy) [2012, Франция, Германия, Бельгия, Комедия, BDRip, 576p] MVO + Original + eng sub

в форуме Фильмы для iPod, iPhone, iPad, Размер: 1.65 ГБ, Здоровье: 100%

Anonymous

0
8|2

45
0

18 май 2015, 10:49

Anonymous Перейти к последнему сообщению

В этой теме нет новых непрочитанных сообщений. Скачать торрент Проверен Роб-Грийе, Ален / Robbe-Grillet, Alain – Проект революции в Нью–Йорке / Project pour une revolution a New-York [1996, PDF/DjVu/TXT/FB2, RUS]

в форуме Зарубежная литература (XX и XXI век), Размер: 4.96 МБ, Здоровье: 0%

Anonymous

0
0|0

0
0

08 сен 2016, 19:08

Anonymous Перейти к последнему сообщению

В этой теме нет новых непрочитанных сообщений. Скачать торрент Проверен [TR24][SM][OF] Enrico Rava - New York Days - 2009 [ECM] (Jazz)

в форуме Hi-Res stereo (Джаз и Блюз), Размер: 1.27 ГБ, Здоровье: 0%

Anonymous

0
0|0

1
0

27 авг 2016, 13:18

Anonymous Перейти к последнему сообщению

В этой теме нет новых непрочитанных сообщений. Скачать торрент Проверен (Hard Rock) Strange Days - Collection - 2012-Strange Days / 2013-Vol. II, MP3, 320 kbps

в форуме Classic Rock & Hard Rock, Размер: 174.22 МБ, Здоровье: 0%

Anonymous

0
0|0

5
0

13 ноя 2016, 13:59

Anonymous Перейти к последнему сообщению

В этой теме нет новых непрочитанных сообщений. Скачать торрент Проверен Добро пожаловать в Нью-Йорк / Welcome to New York (2014) DVDRip | Лицензия

в форуме Драмы, Мелодрамы, Размер: 1.45 ГБ, Здоровье: 100%

Anonymous

0
216|7

58
1513

22 авг 2014, 12:06

Anonymous Перейти к последнему сообщению



Сейчас этот форум просматривают: нет зарегистрированных пользователей и гости: 1


Вы не можете начинать темы
Вы не можете отвечать на сообщения
Вы не можете редактировать свои сообщения
Вы не можете удалять свои сообщения
Вы не можете добавлять вложения

Перейти:  

!ВНИМАНИЕ!
 Ресурс не предоставляет электронные версии произведений, а занимается лишь коллекционированием и каталогизацией ссылок, присылаемых и публикуемых на форуме нашими читателями. Если вы являетесь правообладателем какого-либо представленного материала и не желаете чтобы ссылка на него находилась в нашем каталоге, свяжитесь с нами и мы незамедлительно удалим её. Файлы для обмена на трекере предоставлены пользователями сайта, и администрация не несёт ответственности за их содержание. Просьба не заливать файлы, защищенные авторскими правами, а также файлы нелегального содержания!