На всех торрентах на трекере установлена скидка на скачивание в размере 100 процентов(а).
 Возможность скачивания торрента НЕ зависит от ограничений при низком ратио, низком аплоаде, требуемом ратио или требуемом аплоаде.


Начать новую тему Ответить на тему
Статистика раздачи
Размер: 1.46 ГБ | Добавлен: 13 май 2013, 17:45 | Скачали: 0
Сидеров: 0  [0 байт/сек]    Личеров: 0  [0 байт/сек]
Пред. тема | След. тема 

Автор
Сообщение

СообщениеДобавлено: 13 май 2013, 17:45 

Год выпуска: 2005
Страна: США
Жанр: Комедия
Продолжительность: 01:33:54
Перевод: Профессиональный (полное дублирование)
Русские субтитры: нет

Режиссер: Адам Шэнкман / Adam Shankman

В фильме снимались: Стив Мартин, Александер Конти, Блэйк Вудрафф, Бонни Хант, Джейкоб Смит, Джейми Кинг, Кармен Электра, Кевин Шмидт, Лилиана Мьюми, Морган Йорк, Пайпер Перабо, Том Уэллинг, Тэйлор Лотнер

Вкратце: Сиквел одноименной семейной комедии. Семейство Бейкеров, знакомое нам по первому фильму, планирует провести беззаботные летние каникулы на природе, однако на отдыхе они встречаются с другой, не менее крупной семейкой, детей в кадре, таким образом, становится в два раза больше! Между ними вспыхивает здоровое соперничество и конкуренция, сулящие им немало проблем.

Качество: HDRip
Формат: AVI
Видео кодек: XviD
Аудио кодек: AC3
Видео: 720x304 (2.37:1), 23.976 fps, XviD build 73 ~1828 kbps avg, 0.35 bit/pixel
Аудио: 48 kHz, AC3 Dolby Digital, 3/2 (L,C,R,l,r) + LFE ch, ~384.00 kbps avg

Раздача от:


D:Cheaper.by.the.Dozen.2.2005.HDRip [YTN] by dexter lex.avi
General
Complete name : D:Cheaper.by.the.Dozen.2.2005.HDRip [YTN] by dexter lex.avi
Format : AVI
Format/Info : Audio Video Interleave
File size : 1.46 GiB
Duration : 1h 33mn
Overall bit rate : 2 222 Kbps
Writing application : VirtualDubMod 1.5.10.3 | http:/www.virtualdub-fr.org || (build 2550/release)
Writing library : VirtualDubMod build 2550/release
Video #0
ID : 0
Format : MPEG-4 Visual
Format profile : Advanced Simple@L5
Format settings, BVOP : 1
Format settings, QPel : No
Format settings, GMC : No warppoints
Format settings, Matrix : Custom
Codec ID : XVID
Codec ID/Hint : XviD
Duration : 1h 33mn
Bit rate : 1 828 Kbps
Width : 720 pixels
Height : 304 pixels
Display aspect ratio : 2.37:1
Frame rate : 23.976 fps
Color space : YUV
Chroma subsampling : 4:2:0
Bit depth : 8 bits
Scan type : Progressive
Compression mode : Lossy
Bits/(Pixel*Frame) : 0.348
Stream size : 1.20 GiB (82%)
Writing library : XviD 73
Audio #1
ID : 1
Format : AC-3
Format/Info : Audio Coding 3
Mode extension : CM (complete main)
Format settings, Endianness : Big
Codec ID : 2000
Duration : 1h 33mn
Bit rate mode : Constant
Bit rate : 384 Kbps
Channel(s) : 6 channels
Channel positions : Front: L C R, Side: L R, LFE
Sampling rate : 48.0 KHz
Bit depth : 16 bits
Compression mode : Lossy
Stream size : 258 MiB (17%)
Alignment : Split accross interleaves
Interleave, duration : 42 ms (1.00 video frame)
Interleave, preload duration : 500 ms
загрузка...
Правила, инструкции, FAQ!!!
Торрент  Добавлен [13 май 2013, 17:45] Скачать торрент
Скачать торрент
[ Размер 15.2 КБ / Просмотров 11 ]

Статус  
 
Размер  1.46 ГБ
Приватный: Нет (DHT включён)
.torrent скачан  0
Как залить торрент? | Как скачать Torrent? | Как смотреть и слушать онлайн?  


     Отправить личное сообщение
   
Страница 1 из 1
Показать сообщения за:  Поле сортировки  
Начать новую тему Ответить на тему

   Похожие торренты   Автор   Ответы   Просмотры   Последнее сообщение 
В этой теме нет новых непрочитанных сообщений. Скачать торрент Проверен Оптом дешевле / Cheaper by the Dozen (Шон Леви) [2003 г., комедия, семейный, DVDRip]

в форуме Фильмы для iPod, iPhone, iPad, Размер: 455.73 МБ, Здоровье: 100%

Anonymous

0
3|1

19
1

11 май 2015, 01:36

Anonymous Перейти к последнему сообщению

В этой теме нет новых непрочитанных сообщений. Скачать торрент Проверен (Rock) The Decomposers - Bearded Chicks Cost Cheaper - 2012, MP3, 320 kbps

в форуме Русский Рок, Размер: 93.69 МБ, Здоровье: 0%

Anonymous

0
0|0

0
0

21 авг 2016, 13:19

Anonymous Перейти к последнему сообщению

В этой теме нет новых непрочитанных сообщений. Скачать торрент Проверен (Blues Rock) [LP][24/192] Big Brother & The Holding Company Featuring Janis Joplin – Cheaper Thrills - 1984, APE (image+.cue)

в форуме Зарубежный рок (оцифровки), Размер: 1.61 ГБ, Здоровье: 100%

Anonymous

0
3|1

9
0

26 авг 2016, 19:01

Anonymous Перейти к последнему сообщению

В этой теме нет новых непрочитанных сообщений. Скачать торрент Проверен (House, Disco) [12"][24/96] Voodoo Chilli — Love Songs - Check Out Our Groove [CHEAPER 017X] [2010], FLAC (tracks)

в форуме Электронная музыка (оцифровки), Размер: 244.34 МБ, Здоровье: 0%

Anonymous

0
0|0

0
0

15 сен 2016, 20:26

Anonymous Перейти к последнему сообщению

В этой теме нет новых непрочитанных сообщений. Скачать торрент Проверен (Hard Rock) Ricky Dozen - Made Of Iron - 2013, MP3, 320 kbps

в форуме Classic Rock & Hard Rock, Размер: 98.44 МБ, Здоровье: 0%

Anonymous

0
0|0

0
0

13 ноя 2016, 13:25

Anonymous Перейти к последнему сообщению



Сейчас этот форум просматривают: нет зарегистрированных пользователей и гости: 1


Вы не можете начинать темы
Вы не можете отвечать на сообщения
Вы не можете редактировать свои сообщения
Вы не можете удалять свои сообщения
Вы не можете добавлять вложения

Перейти:  

!ВНИМАНИЕ!
 Ресурс не предоставляет электронные версии произведений, а занимается лишь коллекционированием и каталогизацией ссылок, присылаемых и публикуемых на форуме нашими читателями. Если вы являетесь правообладателем какого-либо представленного материала и не желаете чтобы ссылка на него находилась в нашем каталоге, свяжитесь с нами и мы незамедлительно удалим её. Файлы для обмена на трекере предоставлены пользователями сайта, и администрация не несёт ответственности за их содержание. Просьба не заливать файлы, защищенные авторскими правами, а также файлы нелегального содержания!