На всех торрентах на трекере установлена скидка на скачивание в размере 100 процентов(а).
 Возможность скачивания торрента НЕ зависит от ограничений при низком ратио, низком аплоаде, требуемом ратио или требуемом аплоаде.


Начать новую тему Ответить на тему
Статистика раздачи
Размер: 1.46 ГБ | Добавлен: 04 май 2013, 13:02 | Скачали: 0
Сидеров: 0  [0 байт/сек]    Личеров: 0  [0 байт/сек]
Пред. тема | След. тема 

Автор
Сообщение

СообщениеДобавлено: 04 май 2013, 13:02 

Страна: США
Студии: Practical Pictures, Relativity Media, Universal Pictures, Zoe Pictures
Жанр: комедия
Год выпуска: 2012
Продолжительность: 01:52:52

Перевод: Профессиональный (дублированный)лицензия CEE
Cубтитры: нет
Режиссер: Джон Харвитц / Jon Hurwitz, Хейден Шлоссберг / Hayden Schlossberg


В фильме снимались: Джейсон Биггз (Jim Levenstein), Элисон Хэннигэн (Michelle), Крис Клейн (Oz), Томас Иэн Николас (Kevin), Тара Рид (Vicky), Шонн Уильям Скотт (Stifler), Мена Сувари (Heather), Эдди Кэй Томас (Finch), Джон Чо (MILF Guy #2), Дженнифер Кулидж (Stifler's Mom).


Вкратце:
Герои «Американского пирога» встречаются вновь спустя 10 лет. Они докажут, что даже время и расстояние не в силах разрушить их дружбу. Летом 1999-го четверо мичиганских парней решили расстаться с невинностью. Прошли годы, и теперь друзья вернулись домой уже повзрослевшими, чтобы вспомнить прошлое и оторваться на полную катушку.

Качество видео: BDRip (Исх.: Blu-ray Disc 1080p)
Формат видео: AVI
Видео: XviD build 65, 704x384 (16:9), 23.976 fps, 1458 kbps avg, 0.225 bit/pixel
Аудио: 48 kHz, AC3 Dolby Digital, 3/2 (L,C,R,l,r) + LFE ch, 384 kbps avg (Rus Dub)
MediaInfo
Общее
Полное имя : D:\American.Reunion.2012.DUB.XviD.AC3.BDRip._by.ZNG505_.avi
Формат : AVI
Формат/Информация : Audio Video Interleave
Размер файла : 1,46 Гбайт
Продолжительность : 1 ч. 52 м.
Общий поток : 1851 Кбит/сек
Программа кодирования : VirtualDubModRus 1.5.10.2 (build 2542/release)
Библиотека кодирования : VirtualDubMod build 2542/release
Видео
Идентификатор : 0
Формат : MPEG-4 Visual
Профиль формата : Advanced Simple@L5
Параметр BVOP формата : 2
Параметр QPel формата : Нет
Параметр GMC формата : Без точки перехода
Параметр матрицы формата : Выборочная
Идентификатор кодека : XVID
Идентификатор кодека/Подсказка : XviD
Продолжительность : 1 ч. 52 м.
Битрейт : 1458 Кбит/сек
Ширина : 704 пикселя
Высота : 384 пикселя
Соотношение сторон : 16:9
Частота кадров : 23,976 кадра/сек
Цветовое пространство : YUV
Субдискретизация насыщенности : 4:2:0
Битовая глубина : 8 бит
Тип развёртки : Прогрессивная
Метод сжатия : С потерями
Бит/(Пиксели*Кадры) : 0.225
Размер потока : 1,15 Гбайт (79%)
Библиотека кодирования : XviD 65
Аудио
Идентификатор : 1
Формат : AC-3
Формат/Информация : Audio Coding 3
Расширение режима : CM (complete main)
Идентификатор кодека : 2000
Продолжительность : 1 ч. 52 м.
Вид битрейта : Постоянный
Битрейт : 384 Кбит/сек
Каналы : 6 каналов
Расположение каналов : Front: L C R, Side: L R, LFE
Частота : 48,0 КГц
Битовая глубина : 16 бит
Метод сжатия : С потерями
Размер потока : 310 Мбайт (21%)
Выравнивание : Разделение по промежуткам
Продолжительность промежутка : 42 мс. (1,00 видеокадр)
Время предзагрузки промежутка : 500 мс.
Заголовок : Rus DUB



загрузка...
Правила, инструкции, FAQ!!!
Торрент  Добавлен [04 май 2013, 13:02] Скачать торрент
Скачать торрент
[ Размер 15.12 КБ / Просмотров 11 ]

Статус  
 
Размер  1.46 ГБ
Приватный: Нет (DHT включён)
.torrent скачан  0
Как залить торрент? | Как скачать Torrent? | Как смотреть и слушать онлайн?  


     Отправить личное сообщение
   
Страница 1 из 1
Показать сообщения за:  Поле сортировки  
Начать новую тему Ответить на тему

   Похожие торренты   Автор   Ответы   Просмотры   Последнее сообщение 
В этой теме нет новых непрочитанных сообщений. Скачать торрент Проверен [MP4 360x640] Американский пирог: Все в сборе / American Reunion (2012) BDRip

в форуме Видео для смартфонов и КПК, Размер: 790.52 МБ, Здоровье: 1%

Anonymous

0
1|66

119
0

25 окт 2014, 23:31

Anonymous Перейти к последнему сообщению

В этой теме нет новых непрочитанных сообщений. Скачать торрент Американский пирог представляет: Книга Любви / Американский пирог 7 / American Pie Presents: The Book of Love (Джон Путч / John Putch) [2009, комедия, HDRip] [UNRATED] Dub

в форуме Комедии, Размер: 1.46 ГБ, Здоровье: 0%

Anonymous

0
0|0

94
0

06 фев 2014, 11:44

Anonymous Перейти к последнему сообщению

В этой теме нет новых непрочитанных сообщений. Скачать торрент Американский пирог 5: голая миля / American Pie Presents The Naked Mile (Джо Нуссбаум / Joe Nussbaum) [2006 г., Комедия, HDTVRip] MVO

в форуме Комедии, Размер: 1.46 ГБ, Здоровье: ???%

Anonymous

0
0|1

74
1

06 фев 2014, 11:43

Anonymous Перейти к последнему сообщению

В этой теме нет новых непрочитанных сообщений. Скачать торрент Американский пирог 6: Переполох в общаге / American Pie Presents: Beta House (Эндрю Уоллер / Andrew Uoller) [2007 г., молодёжная комедия, DVDRip] DVO + Original

в форуме Комедии, Размер: 1.46 ГБ, Здоровье: 0%

Anonymous

0
0|0

43
0

06 фев 2014, 11:43

Anonymous Перейти к последнему сообщению

В этой теме нет новых непрочитанных сообщений. Скачать торрент [VIDEO4PDA]Американский пирог 1,2,3,4,5,6(все части)/American pie 1,2,3,4,5,6 [QVGA, MP4] (Пол Вейц,Крис Вейц/Джеймс Б. Роджерс/Джесси Дилан/Майк Эллиот/Джо Нуссбаум/Эндрю Уоллер) [1999-2007г.,комедия,DVDRip]

в форуме Видео для смартфонов и КПК, Размер: 1.46 ГБ, Здоровье: 100%

Anonymous

0
70|4

316
4

30 янв 2014, 06:46

Anonymous Перейти к последнему сообщению



Сейчас этот форум просматривают: нет зарегистрированных пользователей и гости: 1


Вы не можете начинать темы
Вы не можете отвечать на сообщения
Вы не можете редактировать свои сообщения
Вы не можете удалять свои сообщения
Вы не можете добавлять вложения

Перейти:  

!ВНИМАНИЕ!
 Ресурс не предоставляет электронные версии произведений, а занимается лишь коллекционированием и каталогизацией ссылок, присылаемых и публикуемых на форуме нашими читателями. Если вы являетесь правообладателем какого-либо представленного материала и не желаете чтобы ссылка на него находилась в нашем каталоге, свяжитесь с нами и мы незамедлительно удалим её. Файлы для обмена на трекере предоставлены пользователями сайта, и администрация не несёт ответственности за их содержание. Просьба не заливать файлы, защищенные авторскими правами, а также файлы нелегального содержания!