На всех торрентах на трекере установлена скидка на скачивание в размере 100 процентов(а).
 Возможность скачивания торрента НЕ зависит от ограничений при низком ратио, низком аплоаде, требуемом ратио или требуемом аплоаде.


Начать новую тему Ответить на тему
Статистика раздачи
Размер: 1.53 ГБ | Добавлен: 03 май 2013, 15:09 | Скачали: 0
Сидеров: 0  [0 байт/сек]    Личеров: 0  [0 байт/сек]
Пред. тема | След. тема 

Автор
Сообщение

СообщениеДобавлено: 03 май 2013, 15:09 

Название: Французский твист
Оригинальное название: Gazon maudit
Год выпуска: 1995
Жанр: Комедия
Выпущено: Франция, Canal+ [fr], Les Films Flam, Renn Productions, TF1 Films Production
Режиссер: Жозиан Баласко

В фильме снимались: Жозиан Баласко, Виктория Абриль, Ален Шаба, Тикки Ольгадо, Катрин Хигель, Катрин Сами, Катрин Лашанс, Кэтрин Бурмен, Телше Бурмен, Вероник Барро, Сильви Одкур, Мишель Бернье, Морин Диот, Мигель Бозе, Жан-Люк Виолет, Катрин Алиас, Филипп Берри, Пол Суисса, Энтони Мартин, Эдмон Франчи, Анник Бергер, Костас Пападопулос, Дэльфин Дюпон, Хенри Талау, Арлетт Лебре, Бланка Ли, Хелен Рэймбо

Вкратце: Лоран и Лоли счастливы в браке. Даже несмотря на то, что при каждом удобном случае Лоран старается изменить жене. Но в тот день, когда в их жизнь со скоростью торнадо ворвалась очаровательная лесбиянка Марижо, всё изменилось. Марижо не только влюбляется в Лоли, но и влюбляет её в себя. Лоран отчаянно пытается спасти свой брачный союз, и одно время Лоран и Марижо даже живут с Лоли по очереди. Но Марижо встречает старых подруг, и обиженная Лоли возвращается к мужу. По крайней мере, так ему кажется. На самом деле история только начинается…

Качество: BDRip
Видео: XviD, 1654 Кбит/с, 720x384
Аудио: Русский, французский (AC3, 2 ch, 192 Кбит/с)

Продолжительность: 01:47:07
Перевод: Профессиональный двухголосый закадровый
Субтитры: Русские





Золотой глобус, 1996 год
Номинации (1):
Лучший фильм на иностранном языке — «Франция»

Сезар, 1996 год
Победитель (1):
Лучший адаптированный или оригинальный сценарий

Номинации (4):
Лучший фильм
Лучший актер (Ален Шаба)
Лучший актер второго плана (Тикки Ольгадо)
Лучший режиссер (Жозиан Баласко)
Общее
Полное имя : E:VideoFrancuzskij.tvist.1995.XviD.BDRipFrancuzskij.tvist.1995.Original.fre.ac3
Формат : AC-3
Формат/Информация : Audio Coding 3
Размер файла : 147 Мбайт
Продолжительность : 1 ч. 47 м.
Режим общего битрейта : Постоянный
Общий поток : 192 Кбит/сек

Аудио
Формат : AC-3
Формат/Информация : Audio Coding 3
Расширение режима : CM (complete main)
Параметр Endianness формата : Big
Продолжительность : 1 ч. 47 м.
Вид битрейта : Постоянный
Битрейт : 192 Кбит/сек
Каналы : 2 канала
Расположение каналов : Front: L R
Частота : 48,0 КГц
Битовая глубина : 16 бит
Метод сжатия : С потерями
Размер потока : 147 Мбайт (100%)

Общее
Полное имя : E:VideoFrancuzskij.tvist.1995.XviD.BDRipFrancuzskij.tvist.1995.rus.srt
Размер файла : 136 Кбайт

Общее
Полное имя : E:VideoFrancuzskij.tvist.1995.XviD.BDRipFrancuzskij.tvist.1995.XviD.BDRip.avi
Формат : AVI
Формат/Информация : Audio Video Interleave
Размер файла : 1,39 Гбайт
Продолжительность : 1 ч. 47 м.
Общий поток : 1856 Кбит/сек
Программа кодирования : VirtualDubMod 1.5.10.2 (build 2540/release)
Библиотека кодирования : VirtualDubMod build 2540/release

Видео
Идентификатор : 0
Формат : MPEG-4 Visual
Профиль формата : Advanced Simple@L5
Параметр BVOP формата : 1
Параметр QPel формата : Нет
Параметр GMC формата : Без точки перехода
Параметр матрицы формата : Default (H.263)
Режим смешивания : Сжатый битовый поток
Идентификатор кодека : XVID
Идентификатор кодека/Подсказка : XviD
Продолжительность : 1 ч. 47 м.
Битрейт : 1654 Кбит/сек
Ширина : 720 пикселей
Высота : 384 пикселя
Соотношение сторон : 1,85:1
Частота кадров : 24,000 кадра/сек
Цветовое пространство : YUV
Субдискретизация насыщенности : 4:2:0
Битовая глубина : 8 бит
Тип развёртки : Прогрессивная
Метод сжатия : С потерями
Бит/(Пиксели*Кадры) : 0.249
Размер потока : 1,24 Гбайт (89%)
Библиотека кодирования : XviD 1.2.1 (UTC 2008-12-04)

Аудио
Идентификатор : 1
Формат : AC-3
Формат/Информация : Audio Coding 3
Расширение режима : CM (complete main)
Параметр Endianness формата : Big
Идентификатор кодека : 2000
Продолжительность : 1 ч. 47 м.
Вид битрейта : Постоянный
Битрейт : 192 Кбит/сек
Каналы : 2 канала
Расположение каналов : Front: L R
Частота : 48,0 КГц
Битовая глубина : 16 бит
Метод сжатия : С потерями
Размер потока : 147 Мбайт (10%)
Выравнивание : Разделение по промежуткам
Продолжительность промежутка : 42 мс. (1,00 видеокадр)
Время предзагрузки промежутка : 500 мс.

загрузка...
Правила, инструкции, FAQ!!!
Торрент  Добавлен [03 май 2013, 15:09] Скачать торрент
Скачать торрент
[ Размер 15.92 КБ / Просмотров 12 ]

Статус  
 
Размер  1.53 ГБ
Приватный: Нет (DHT включён)
.torrent скачан  0
Как залить торрент? | Как скачать Torrent? | Как смотреть и слушать онлайн?  


     Отправить личное сообщение
   
Страница 1 из 1
Показать сообщения за:  Поле сортировки  
Начать новую тему Ответить на тему

   Похожие торренты   Автор   Ответы   Просмотры   Последнее сообщение 
В этой теме нет новых непрочитанных сообщений. Скачать торрент Проверен Билли Мэдисон / Billy Madison (1995) BDRip 720p by msltel

в форуме 720p | 1080p, Размер: 3.7 ГБ, Здоровье: 100%

Гость

0
58|0

71
11

16 ноя 2015, 00:04

Гость Перейти к последнему сообщению

В этой теме нет новых непрочитанных сообщений. Скачать торрент Проверен Французский поцелуй / French Kiss (1995) BDRip 720p | P, P2, A

в форуме 720p | 1080p, Размер: 7.77 ГБ, Здоровье: 7%

Anonymous

0
2|26

30
3

31 окт 2014, 19:34

Anonymous Перейти к последнему сообщению

В этой теме нет новых непрочитанных сообщений. Скачать торрент Проверен Французский транзит / La French (2014) BDRip [576p] iPad

в форуме Фильмы для iPod, iPhone, iPad, Размер: 2.53 ГБ, Здоровье: 50%

Гость

0
1|2

37
0

13 сен 2015, 01:31

Гость Перейти к последнему сообщению

В этой теме нет новых непрочитанных сообщений. Скачать торрент Проверен Французский транзит / La French (2014) BDRip 1080p | Чистый звук

в форуме 720p | 1080p, Размер: 8.92 ГБ, Здоровье: 100%

Anonymous

0
616|264

174
1006

14 июн 2015, 23:18

Anonymous Перейти к последнему сообщению

В этой теме нет новых непрочитанных сообщений. Скачать торрент Проверен (Шансон) Оливер Твист - Счастливое Детство - 1991, MP3, 192 kbps

в форуме Шансон|Авторская песня, Размер: 46.41 МБ, Здоровье: 0%

Anonymous

0
0|0

0
0

05 ноя 2016, 16:47

Anonymous Перейти к последнему сообщению



Сейчас этот форум просматривают: нет зарегистрированных пользователей и гости: 2


Вы не можете начинать темы
Вы не можете отвечать на сообщения
Вы не можете редактировать свои сообщения
Вы не можете удалять свои сообщения
Вы не можете добавлять вложения

Перейти:  

!ВНИМАНИЕ!
 Ресурс не предоставляет электронные версии произведений, а занимается лишь коллекционированием и каталогизацией ссылок, присылаемых и публикуемых на форуме нашими читателями. Если вы являетесь правообладателем какого-либо представленного материала и не желаете чтобы ссылка на него находилась в нашем каталоге, свяжитесь с нами и мы незамедлительно удалим её. Файлы для обмена на трекере предоставлены пользователями сайта, и администрация не несёт ответственности за их содержание. Просьба не заливать файлы, защищенные авторскими правами, а также файлы нелегального содержания!