На всех торрентах на трекере установлена скидка на скачивание в размере 100 процентов(а).
 Возможность скачивания торрента НЕ зависит от ограничений при низком ратио, низком аплоаде, требуемом ратио или требуемом аплоаде.


Начать новую тему Ответить на тему
Статистика раздачи
Размер: 744.63 МБ | Добавлен: 20 апр 2013, 07:40 | Скачали: 0
Сидеров: 0  [0 байт/сек]    Личеров: 0  [0 байт/сек]
Пред. тема | След. тема 

Автор
Сообщение

СообщениеДобавлено: 20 апр 2013, 07:40 

Страна: США, Великобритания
Студия: Emmett/Furla Films, Likely Story...
Жанр: комедия
Год выпуска: 2012
Продолжительность: 01:33:33

Перевод: Профессиональный (дублированный)
Оригинальная аудиодорожка: нет
Cубтитры: нет

Режиссер: Стивен Фрирз / Stephen Frears

В фильме снимались: Ребекка Холл, Брюс Уиллис, Кэтрин Зета-Джонс, Джошуа Джексон, Фрэнк Грилло, Винс Вон, Джон Кэрролл Линч, Лаура Препон, Уэйн Пер, Джоэль Мюррей...

Вкратце: Девушка в 24 года переехала в Лас-Вегас, где нашла работу у добродушного толстяка Динка Хаймовица, содержащего нелегальную букмекерскую контору. Миляга Динк получил хорошее образование, но отличился в родном Нью-Йорке махинациями на ставках, из-за чего и сбежал в игорную столицу США. Игорным бизнесом Хаймовиц продолжал заниматься при помощи своего напарника букмекера Бернарда Роуза, который живет на Лонг-Айленде. Будучи математическими гениями, эти двое сколотили себе состояние на ставках и наивных клиентах, тогда как сама Бет научилась от них многим трюкам.





Исходник: Lay.the.Favorite.2012.720p.BluRay.x264.RoSubbed-SAiMORNY [PublicHD]
Качество: HDRip
Формат: AVI

Видео: 656x352 (1.85:1), 24.000 fps, XviD ~ 976 kbps avg, 0.176 bit/pixel
Аудио: 48 kHz, MP3 2 ch, 128 kbps, русский


Общее
Полное имя : Fortuna.Vegasa.2012.P.HDRip.745MB_[Youtracker]_by_avproh.avi
Формат : AVI
Формат/Информация : Audio Video Interleave
Размер файла : 745 Мбайт
Продолжительность : 1 ч. 33 м.
Общий поток : 1113 Кбит/сек
Программа кодирования : VirtualDubModRus 1.5.10.2 (build 2542/release)
Библиотека кодирования : VirtualDubMod build 2542/release

Видео
Идентификатор : 0
Формат : MPEG-4 Visual
Профиль формата : Advanced Simple@L5
Параметр BVOP формата : 1
Параметр QPel формата : Нет
Параметр GMC формата : Без точки перехода
Параметр матрицы формата : Выборочная
Идентификатор кодека : XVID
Идентификатор кодека/Подсказка : XviD
Продолжительность : 1 ч. 33 м.
Битрейт : 976 Кбит/сек
Ширина : 656 пикселей
Высота : 352 пикселя
Соотношение сторон : 1,85:1
Частота кадров : 24,000 кадра/сек
Цветовое пространство : YUV
Субдискретизация насыщенности : 4:2:0
Битовая глубина : 8 бит
Тип развёртки : Прогрессивная
Метод сжатия : С потерями
Бит/(Пиксели*Кадры) : 0.176
Размер потока : 653 Мбайт (88%)
Библиотека кодирования : XviD 65

Аудио
Идентификатор : 1
Формат : MPEG Audio
Версия формата : Version 1
Профиль формата : Layer 3
Режим : Joint stereo
Расширение режима : MS Stereo
Идентификатор кодека : 55
Идентификатор кодека/Подсказка : MP3
Продолжительность : 1 ч. 33 м.
Вид битрейта : Постоянный
Битрейт : 128 Кбит/сек
Каналы : 2 канала
Частота : 48,0 КГц
Метод сжатия : С потерями
Размер потока : 85,6 Мбайт (12%)
Выравнивание : Соединение по промежуткам
Продолжительность промежутка : 42 мс. (1,00 видеокадр)
Время предзагрузки промежутка : 504 мс.


загрузка...
Правила, инструкции, FAQ!!!
Торрент  Добавлен [20 апр 2013, 07:40] Скачать торрент
Скачать торрент
[ Размер 15.2 КБ / Просмотров 4 ]

Статус  
 
Размер  744.63 МБ
Приватный: Нет (DHT включён)
.torrent скачан  0
Как залить торрент? | Как скачать Torrent? | Как смотреть и слушать онлайн?  


     Отправить личное сообщение
   
Страница 1 из 1
Показать сообщения за:  Поле сортировки  
Начать новую тему Ответить на тему

   Похожие торренты   Автор   Ответы   Просмотры   Последнее сообщение 
В этой теме нет новых непрочитанных сообщений. Скачать торрент Проверен [iPad] Фортуна Вегаса / Lay the Favorite (Стивен Фрирз / Stephen Frears ) [2012, США, Великобритания, Франция, комедия, драма, BDRip, SD (576p)] DUB + Original + sub (eng)

в форуме Фильмы для iPod, iPhone, iPad, Размер: 1.61 ГБ, Здоровье: 100%

Гость

0
9|3

33
0

12 май 2015, 00:08

Гость Перейти к последнему сообщению

В этой теме нет новых непрочитанных сообщений. Скачать торрент Проверен Из Вегаса в Макао / Ao Men feng yun (2014) HDRip | L1

в форуме Комедии, Размер: 1.37 ГБ, Здоровье: 0%

Anonymous

0
0|0

43
0

11 июл 2014, 09:05

Anonymous Перейти к последнему сообщению

В этой теме нет новых непрочитанных сообщений. Скачать торрент Проверен Святой Джон из Лас-Вегаса / Saint John of Las Vegas (2009) HDRip | D

в форуме Комедии, Размер: 1.46 ГБ, Здоровье: 100%

Гость

0
70|48

99
50

19 янв 2015, 22:23

Гость Перейти к последнему сообщению

В этой теме нет новых непрочитанных сообщений. Скачать торрент На дороге / On the Road (2012) HDRip | Лицензия

в форуме Драмы, Мелодрамы, Размер: 1.45 ГБ, Здоровье: 0%

Anonymous

0
0|0

22
0

25 янв 2014, 19:06

Anonymous Перейти к последнему сообщению

В этой теме нет новых непрочитанных сообщений. Скачать торрент Проверен Старик / Шал / Shal (2012) HDRip | P1 | Лицензия

в форуме Драмы, Мелодрамы, Размер: 1.37 ГБ, Здоровье: 0%

Anonymous

0
0|0

52
0

05 июн 2014, 06:58

Anonymous Перейти к последнему сообщению



Сейчас этот форум просматривают: нет зарегистрированных пользователей и гости: 1


Вы не можете начинать темы
Вы не можете отвечать на сообщения
Вы не можете редактировать свои сообщения
Вы не можете удалять свои сообщения
Вы не можете добавлять вложения

Перейти:  

!ВНИМАНИЕ!
 Ресурс не предоставляет электронные версии произведений, а занимается лишь коллекционированием и каталогизацией ссылок, присылаемых и публикуемых на форуме нашими читателями. Если вы являетесь правообладателем какого-либо представленного материала и не желаете чтобы ссылка на него находилась в нашем каталоге, свяжитесь с нами и мы незамедлительно удалим её. Файлы для обмена на трекере предоставлены пользователями сайта, и администрация не несёт ответственности за их содержание. Просьба не заливать файлы, защищенные авторскими правами, а также файлы нелегального содержания!