На всех торрентах на трекере установлена скидка на скачивание в размере 100 процентов(а).
 Возможность скачивания торрента НЕ зависит от ограничений при низком ратио, низком аплоаде, требуемом ратио или требуемом аплоаде.


Начать новую тему Ответить на тему
Статистика раздачи
Размер: 1.77 ГБ | Добавлен: 25 янв 2015, 10:54 | Скачали: 1
Сидеров: 30  [0 байт/сек]    Личеров: 10  [0 байт/сек]
Пред. тема | След. тема 

Автор
Сообщение

СообщениеДобавлено: 25 янв 2015, 10:54 

Страна: США
Жанр: комедия
Год выпуска: 1992
Продолжительность: 01:29:10

Перевод 1: Авторский (одноголосый закадровый) Михалёв
Перевод 2: Авторский (одноголосый закадровый) Дохалов
Перевод 3: Авторский (одноголосый закадровый) Карповский
Перевод 4: Авторский (одноголосый закадровый) Марченко отдельным файлом
Перевод 5: Авторский (одноголосый закадровый) Живов отдельным файлом
Cубтитры: английские
Оригинальная аудиодорожка: английский

Режиссер: Роберт Клейн / Robert Klane

В ролях: Эндрю МакКарти, Джонатан Силвермен, Терри Кайзер, Трой Бейер, Бэрри Боствик, Том Райт, Стив Джеймс, Новелла Нельсон, Фил Коччиолетти, Гари Дурдан...

Описание: Главные герои фильма снова не расстаются с трупом Берни. Они обнаружили в его бумажнике электронный ключ от камеры хранения на Виргинских островах, а так как их уволили из страховой компании по подозрению в присвоении денег, украденных Берни, то они решили вознаградить себя и действительно найти эти деньги.

В то же время местные колдуны вуду на Виргинских островах решили оживить Берни, чтобы узнать у покойного, где он спрятал деньги.

Доп. информация: перевод Марченко взят с раздачи _int_, перевод предоставил серый75. За предоставление перевода Живова спасибо NeoGuyver.

Качество видео: DVDRip
Формат видео: AVI

Видео: 720x400 (1.80:1), 23.976 fps, XviD build 65 ~1763 kbps avg, 0.26 bit/pixel
Аудио 1: 48 kHz, AC3 Dolby Digital, 2/0 (L,R) Surround Encoded ch, ~192 kbps Михалёв
Аудио 2: 48 kHz, AC3 Dolby Digital, 2/0 (L,R) Surround Encoded ch, ~192 kbps Дохалов
Аудио 3: 48 kHz, AC3 Dolby Digital, 2/0 (L,R) ch, ~192 kbps Карповский
Аудио 4: 44.1 kHz, MPEG Layer 3, 2 ch, ~192.00 kbps avg Марченко отдельным файлом
Аудио 5: 48 kHz, AC3 Dolby Digital, 1/0 (C) ch, ~96 kbps Живов отдельным файлом
Аудио 6: 48 kHz, AC3 Dolby Digital, 2/0 (L,R) Surround Encoded ch, ~192 kbps Eng отдельным файлом

Формат субтитров: softsub (SRT)

General
Complete name : D:\Weekend at Bernie's II.avi
Format : AVI
Format/Info : Audio Video Interleave
File size : 1.47 GiB
Duration : 1h 29mn
Overall bit rate : 2 359 Kbps
Writing application : VirtualDubMod 1.5.10.3 (build 2550/release)
Writing library : VirtualDubMod build 2550/release

Video
ID : 0
Format : MPEG-4 Visual
Format profile : Advanced Simple@L5
Format settings, BVOP : 2
Format settings, QPel : No
Format settings, GMC : No warppoints
Format settings, Matrix : Default (MPEG)
Codec ID : XVID
Codec ID/Hint : XviD
Duration : 1h 29mn
Bit rate : 1 764 Kbps
Width : 720 pixels
Height : 400 pixels
Display aspect ratio : 16:9
Frame rate : 23.976 fps
Color space : YUV
Chroma subsampling : 4:2:0
Bit depth : 8 bits
Scan type : Progressive
Compression mode : Lossy
Bits/(Pixel*Frame) : 0.255
Stream size : 1.10 GiB (75%)
Writing library : XviD 65

Audio #1
ID : 1
Format : AC-3
Format/Info : Audio Coding 3
Format profile : Dolby Digital
Mode extension : CM (complete main)
Format settings, Endianness : Big
Codec ID : 2000
Duration : 1h 29mn
Bit rate mode : Constant
Bit rate : 192 Kbps
Channel(s) : 2 channels
Channel positions : Front: L R
Sampling rate : 48.0 KHz
Bit depth : 16 bits
Compression mode : Lossy
Stream size : 122 MiB (8%)
Alignment : Split accross interleaves
Interleave, duration : 42 ms (1.00 video frame)
Interleave, preload duration : 500 ms

Audio #2
ID : 2
Format : AC-3
Format/Info : Audio Coding 3
Format profile : Dolby Digital
Mode extension : CM (complete main)
Format settings, Endianness : Big
Codec ID : 2000
Duration : 1h 29mn
Bit rate mode : Constant
Bit rate : 192 Kbps
Channel(s) : 2 channels
Channel positions : Front: L R
Sampling rate : 48.0 KHz
Bit depth : 16 bits
Compression mode : Lossy
Stream size : 122 MiB (8%)
Alignment : Split accross interleaves
Interleave, duration : 42 ms (1.00 video frame)
Interleave, preload duration : 500 ms

Audio #3
ID : 3
Format : AC-3
Format/Info : Audio Coding 3
Mode extension : CM (complete main)
Format settings, Endianness : Big
Codec ID : 2000
Duration : 1h 29mn
Bit rate mode : Constant
Bit rate : 192 Kbps
Channel(s) : 2 channels
Channel positions : Front: L R
Sampling rate : 48.0 KHz
Bit depth : 16 bits
Compression mode : Lossy
Stream size : 122 MiB (8%)
Alignment : Split accross interleaves
Interleave, duration : 42 ms (1.00 video frame)
Interleave, preload duration : 500 ms
загрузка...
Правила, инструкции, FAQ!!!
Торрент  Добавлен [25 янв 2015, 10:54] Скачать торрент
Скачать торрент
[ Размер 18.65 КБ / Просмотров 12 ]

Статус
Проверен 
 
Размер  1.77 ГБ
Приватный: Нет (DHT включён)
.torrent скачан  1
Как залить торрент? | Как скачать Torrent? | Как смотреть и слушать онлайн?  


     Отправить личное сообщение
   
Страница 1 из 1
Показать сообщения за:  Поле сортировки  
Начать новую тему Ответить на тему

   Похожие торренты   Автор   Ответы   Просмотры   Последнее сообщение 
В этой теме нет новых непрочитанных сообщений. Скачать торрент Смерть ей к лицу / Death Becomes Her (Роберт Земекис / Robert Zemeckis) [1992 г., Комедия, фэнтези, HDTVRip]

в форуме Комедии, Размер: 1.46 ГБ, Здоровье: 0%

Anonymous

0
0|0

43
0

24 янв 2014, 19:49

Anonymous Перейти к последнему сообщению

В этой теме нет новых непрочитанных сообщений. Скачать торрент Проверен [iPhone] Голая правда / The Ugly Truth (Роберт Лукетич / Robert Luketic) [2009 г., Комедия, мелодрама, DVDRip] Dub

в форуме Фильмы для iPod, iPhone, iPad, Размер: 870.2 МБ, Здоровье: 100%

Anonymous

0
20|4

28
0

18 май 2015, 10:34

Anonymous Перейти к последнему сообщению

В этой теме нет новых непрочитанных сообщений. Скачать торрент Придурки из Хаззарда: Начало / Дюки из Хаззарда / The Dukes of Hazzard: The Beginning (Роберт Берлингер / Robert Berlinger) [2007 г., боевик, комедия, приключения, DVDRip]

в форуме Боевики, Размер: 1.7 ГБ, Здоровье: 100%

Anonymous

0
3|1

55
0

03 апр 2014, 12:43

Anonymous Перейти к последнему сообщению

В этой теме нет новых непрочитанных сообщений. Скачать торрент РЭД / Red (Роберт Швентке / Robert Schwentke) [2010, США, боевик, комедия, криминал, BDRip]

в форуме Боевики, Размер: 2.18 ГБ, Здоровье: 100%

Anonymous

0
50|17

53
0

15 апр 2014, 08:16

Anonymous Перейти к последнему сообщению

В этой теме нет новых непрочитанных сообщений. Скачать торрент Блондинка в законе / Legally Blonde (Роберт Лукетич / Robert Luketic) [2001, США, комедия, HDRip] DUB

в форуме Комедии, Размер: 746.52 МБ, Здоровье: 100%

Anonymous

0
32|11

35
0

24 апр 2014, 14:07

Anonymous Перейти к последнему сообщению



Сейчас этот форум просматривают: нет зарегистрированных пользователей и гости: 1


Вы не можете начинать темы
Вы не можете отвечать на сообщения
Вы не можете редактировать свои сообщения
Вы не можете удалять свои сообщения
Вы не можете добавлять вложения

Перейти:  

!ВНИМАНИЕ!
 Ресурс не предоставляет электронные версии произведений, а занимается лишь коллекционированием и каталогизацией ссылок, присылаемых и публикуемых на форуме нашими читателями. Если вы являетесь правообладателем какого-либо представленного материала и не желаете чтобы ссылка на него находилась в нашем каталоге, свяжитесь с нами и мы незамедлительно удалим её. Файлы для обмена на трекере предоставлены пользователями сайта, и администрация не несёт ответственности за их содержание. Просьба не заливать файлы, защищенные авторскими правами, а также файлы нелегального содержания!