На всех торрентах на трекере установлена скидка на скачивание в размере 100 процентов(а).
 Возможность скачивания торрента НЕ зависит от ограничений при низком ратио, низком аплоаде, требуемом ратио или требуемом аплоаде.


Начать новую тему Ответить на тему
Статистика раздачи
Размер: 1.46 ГБ | Добавлен: 19 янв 2015, 22:23 | Скачали: 50
Сидеров: 70  [0 байт/сек]    Личеров: 48  [0 байт/сек]
Пред. тема | След. тема 

Автор
Сообщение

СообщениеДобавлено: 19 янв 2015, 22:23 

Название: Святой Джон из Лас-Вегаса
Оригинальное название: Saint John of Las Vegas
Год выхода: 2009
Жанр: Kомедия, драма
Режиссер: Хуэ Родс
В ролях: Стив Бушеми, Эммануэль Шрики, Романи Малко, Джон Чо, Питер Динклэйдж, Авива, Тим Блейк Нельсон, Сара Силверман, Джесси Гарсиа, Исаак Кэппи

О фильме:
У страхового агента Джона есть пагубная привычка — он забывает обо всем на свете, когда видит стол казино или лотерейный билет. Чтобы не искушать судьбу, он вынужден сменить место жительства и покинуть Лас Вегас. Но босс компании решает испытать сотрудника на прочность и отправляет Джона в командировку в Лас Вегас. Джону предстоит расследовать обстоятельства происшествия, в результате которого стриптизерша получила производственную травму и теперь прикована к инвалидной коляске. Стриптизерша требует компенсации потерянных заработков и страховому агенту необходимо восстановить детальную картину случившегося. Сможет ли Джон устоять перед искушениями, вернувшись в город казино и греха?…



Страна: США, Circle of Confusion
Продолжительность: 01:24:45
Перевод: Дублированный [Лицензия]


Кодек: XviD
Качество: HDRip [BDRip 720p PsyHD]
Видео: 720x400 (1.80:1), 23.976 fps, XviD build 73 ~1816 kbps avg, 0.26 bit/pixel
Звук: AC3, 6 ch, 384 Кбит/с [Rus / ENG]

Скачать: Сэмпл

Svjat0j.Dzh0n.iz.Las.Vegasa.D.2009.HDRip.Deadmauvlad.avi
Формат : AVI
Формат/Информация : Audio Video Interleave
Размер файла : 1,46 Гбайт
Продолжительность : 1 ч. 24 м.
Общий поток : 2470 Кбит/сек
Название фильма : Svjat0j.Dzh0n.iz.Las.Vegasa.D.2009.HDRip.Deadmauvlad
Режиссёр : Deadmauvlad
Жанр : комедия, мелодрама, драма
Программа кодирования : VirtualDubMod 1.5.10.3 | http://www.virtualdub-fr.org || (build 2550/release)
Формат оригинала/Имя : Фильм
Правообладатель : Goldenshara

Видео
Идентификатор : 0
Формат : MPEG-4 Visual
Профиль формата : Advanced Simple@L5
Параметр BVOP формата : 1
Параметр QPel формата : Нет
Параметр GMC формата : Без точки перехода
Параметр матрицы формата : Выборочная
Идентификатор кодека : XVID
Идентификатор кодека/Подсказка : XviD
Продолжительность : 1 ч. 24 м.
Битрейт : 1688 Кбит/сек
Ширина : 720 пикселей
Высота : 304 пикселя
Соотношение сторон : 2,35:1
Частота кадров : 23,976 кадра/сек
Цветовое пространство : YUV
Субдискретизация насыщенности : 4:2:0
Битовая глубина : 8 бит
Тип развёртки : Прогрессивная
Метод сжатия : С потерями
Бит/(Пиксели*Кадры) : 0.322
Размер потока : 1,00 Гбайт (68%)
Библиотека кодирования : XviD 73

Аудио #1
Идентификатор : 1
Формат : AC-3
Формат/Информация : Audio Coding 3
Расширение режима : CM (complete main)
Параметр Endianness формата : Big
Идентификатор кодека : 2000
Продолжительность : 1 ч. 24 м.
Вид битрейта : Постоянный
Битрейт : 384 Кбит/сек
Каналы : 6 каналов
Расположение каналов : Front: L C R, Side: L R, LFE
Частота : 48,0 КГц
Битовая глубина : 16 бит
Метод сжатия : С потерями
Размер потока : 233 Мбайт (16%)
Выравнивание : Разделение по промежуткам
Продолжительность промежутка : 42 мс. (1,00 видеокадр)
Время предзагрузки промежутка : 500 мс.

Аудио #2
Идентификатор : 2
Формат : AC-3
Формат/Информация : Audio Coding 3
Расширение режима : CM (complete main)
Параметр Endianness формата : Big
Идентификатор кодека : 2000
Продолжительность : 1 ч. 24 м.
Вид битрейта : Постоянный
Битрейт : 384 Кбит/сек
Каналы : 6 каналов
Расположение каналов : Front: L C R, Side: L R, LFE
Частота : 48,0 КГц
Битовая глубина : 16 бит
Метод сжатия : С потерями
Размер потока : 233 Мбайт (16%)
Выравнивание : Разделение по промежуткам
Продолжительность промежутка : 42 мс. (1,00 видеокадр)
Время предзагрузки промежутка : 500 мс.

загрузка...
Правила, инструкции, FAQ!!!
Торрент  Добавлен [19 янв 2015, 22:23] Скачать торрент
Скачать торрент
[ Размер 15.55 КБ / Просмотров 7 ]

Статус
Проверен 
 
Размер  1.46 ГБ
Приватный: Нет (DHT включён)
.torrent скачан  50
Как залить торрент? | Как скачать Torrent? | Как смотреть и слушать онлайн?  


     Отправить личное сообщение
   
Страница 1 из 1
Показать сообщения за:  Поле сортировки  
Начать новую тему Ответить на тему

   Похожие торренты   Автор   Ответы   Просмотры   Последнее сообщение 
В этой теме нет новых непрочитанных сообщений. Скачать торрент Джон Рабе / John Rabe (Флориан Галленбергер / Florian Gallenberger) [2009, Германия, Франция, Китай, драма, военный, биография, история, HDRip] VO

в форуме Военные, Размер: 1.37 ГБ, Здоровье: 100%

Anonymous

0
5|1

164
0

02 апр 2014, 12:07

Anonymous Перейти к последнему сообщению

В этой теме нет новых непрочитанных сообщений. Скачать торрент Американский пирог представляет: Книга Любви / Американский пирог 7 / American Pie Presents: The Book of Love (Джон Путч / John Putch) [2009, комедия, HDRip] [UNRATED] Dub

в форуме Комедии, Размер: 1.46 ГБ, Здоровье: 0%

Anonymous

0
0|0

94
0

06 фев 2014, 11:44

Anonymous Перейти к последнему сообщению

В этой теме нет новых непрочитанных сообщений. Скачать торрент Проверен [MP4 640x272] Джон Картер / John Carter (2012) HDRip

в форуме Видео для смартфонов и КПК, Размер: 1.05 ГБ, Здоровье: 50%

Anonymous

0
1|2

102
0

25 окт 2014, 23:30

Anonymous Перейти к последнему сообщению

В этой теме нет новых непрочитанных сообщений. Скачать торрент Сломанная стрела / Broken Arrow (Джон Ву / John Woo) [1996 г., Боевик, HDRip] MVO

в форуме Боевики, Размер: 742.48 МБ, Здоровье: 100%

Anonymous

0
2|1

332
0

01 фев 2014, 19:08

Anonymous Перейти к последнему сообщению

В этой теме нет новых непрочитанных сообщений. Скачать торрент Проверен Бунт / Riot (Джон Лойд / John Lyde) [2015, США, боевик, HDRip] DVO

в форуме Боевики, Размер: 1.37 ГБ, Здоровье: 80%

Гость

0
4|5

201
4

17 янв 2016, 09:22

Гость Перейти к последнему сообщению



Сейчас этот форум просматривают: нет зарегистрированных пользователей и гости: 1


Вы не можете начинать темы
Вы не можете отвечать на сообщения
Вы не можете редактировать свои сообщения
Вы не можете удалять свои сообщения
Вы не можете добавлять вложения

Перейти:  

!ВНИМАНИЕ!
 Ресурс не предоставляет электронные версии произведений, а занимается лишь коллекционированием и каталогизацией ссылок, присылаемых и публикуемых на форуме нашими читателями. Если вы являетесь правообладателем какого-либо представленного материала и не желаете чтобы ссылка на него находилась в нашем каталоге, свяжитесь с нами и мы незамедлительно удалим её. Файлы для обмена на трекере предоставлены пользователями сайта, и администрация не несёт ответственности за их содержание. Просьба не заливать файлы, защищенные авторскими правами, а также файлы нелегального содержания!