На всех торрентах на трекере установлена скидка на скачивание в размере 100 процентов(а).
 Возможность скачивания торрента НЕ зависит от ограничений при низком ратио, низком аплоаде, требуемом ратио или требуемом аплоаде.


Начать новую тему Ответить на тему
Статистика раздачи
Размер: 1.46 ГБ | Добавлен: 07 ноя 2012, 16:48 | Скачали: 0
Сидеров: 1  [0 байт/сек]    Личеров: 0  [0 байт/сек]
Пред. тема | След. тема 

Автор
Сообщение

СообщениеДобавлено: 07 ноя 2012, 16:48 

Кокни против зомби / Cockneys vs Zombies



Описание: Забавное месиво сюжетов таких картин, как "Зомби по имени Шон" и "Карты, деньги, два ствола"... Строители находят древнюю могилу и выпускают в современный Лондон вирус, который обычные трупы превращает в ходячие и поедающие живых. Ещё одна проблема - дом престарелых "Бубенчики" сносят под новое строительство, а у главных героев там живет любимый дедушка с друзьями. Как оставить дом престарелых на месте? Очень просто! Выкупить землю! А где взять деньги? И внуки решают ограбить банк!

Страна: Великобритания
Жанр: ужасы, комедия
Год выпуска: 2012
Продолжительность: 01:28:22
Перевод: Любительский (двухголосый закадровый)[студия "Райдо]перевод Алёны Ивановой, закадровый текст читали Полина Касаткина и Сергей Калугин
Cубтитры: нет
Режиссер: Матиас Хоен / Mathias Hohen

В фильме снимались: Мишель Райан, Джорджия Кинг, Алан Форд, Онор Блэкман, Ли Асквит-Коу, Гарри Тредэвэй, Фордхэм Сьюзэн, Ричард Брирс, Тони Гарднер, Расмус Хардайкер





Качество видео: HDRip (исходник неизвестен)
Формат видео: AVI

Видео: 720x352 (2.05:1), 23.976 fps, DivX Codec 5.x or 6.x, 1904 kbps avg, 0.31 bit/pixel
Аудио: 48 kHz, AC3 Dolby Digital, 3/2 (L,C,R,l,r) + LFE ch, 448 kbps


General
Complete name : D:\Torrents\Kokni.protiv.zombi_2012.L2.HDRip.avi
Format : AVI
Format/Info : Audio Video Interleave
File size : 1.46 GiB
Duration : 1h 28mn
Overall bit rate : 2 362 Kbps
Writing application : VirtualDubMod 1.5.10.2 (build 2540/release)
Writing library : VirtualDubMod build 2540/release
Video #0
ID : 0
Format : MPEG-4 Visual
Format profile : AdvancedSimple@L5
Format settings, BVOP : Yes
Format settings, QPel : No
Format settings, GMC : No warppoints
Format settings, Matrix : Default (H.263)
Muxing mode : Packed bitstream
Codec ID : DX50
Codec ID/Hint : DivX 5
Duration : 1h 28mn
Bit rate : 1 811 Kbps
Width : 720 pixels
Height : 352 pixels
Display aspect ratio : 2.045
Frame rate : 23.976 fps
Resolution : 24 bits
Colorimetry : 4:2:0
Scan type : Progressive
Bits/(Pixel*Frame) : 0.298
Stream size : 1.12 GiB (77%)
Writing library : XviD 1.2.1 (UTC 2008-12-04)
Audio #1
ID : 1
Format : AC-3
Format/Info : Audio Coding 3
Codec ID : 2000
Duration : 1h 28mn
Bit rate mode : Constant
Bit rate : 448 Kbps
Channel(s) : 6 channels
Channel positions : Front: L C R, Surround: L R, LFE
Sampling rate : 48.0 KHz
Stream size : 283 MiB (19%)
Alignment : Split accross interleaves


Приятного просмотра!
загрузка...
Правила, инструкции, FAQ!!!
Торрент  Добавлен [07 ноя 2012, 16:48] Скачать торрент
Скачать торрент
[ Размер 15.13 КБ / Просмотров 27 ]

Статус
Проверен 
 
Размер  1.46 ГБ
Приватный: Нет (DHT включён)
.torrent скачан  0
Как залить торрент? | Как скачать Torrent? | Как смотреть и слушать онлайн?  


     Отправить личное сообщение
   
Страница 1 из 1
Показать сообщения за:  Поле сортировки  
Начать новую тему Ответить на тему

   Похожие торренты   Автор   Ответы   Просмотры   Последнее сообщение 
В этой теме нет новых непрочитанных сообщений. Скачать торрент Проверен Паранорман, или Как приручить зомби в 3Д / ParaNorman 3D [2012, США, мультфильм, ужасы, фэнтези, комедия, приключения, BDrip, 1080p] OverUnder / Вертикальная стереопара

в форуме 3D Мультфильмы, Размер: 6.73 ГБ, Здоровье: 0%

Anonymous

0
0|0

10
0

07 сен 2016, 17:37

Anonymous Перейти к последнему сообщению

В этой теме нет новых непрочитанных сообщений. Скачать торрент Проверен Паранорман, или Как приручить зомби в 3Д / ParaNorman 3D (Крис Батлер, Сэм Фелл / Chris Butler, Sam Fell) [2012, Мультфильм, ужасы, фэнтези, комедия, приключения, BDremux, 1080p] BD3D

в форуме HD-Video в 3D, Размер: 26.66 ГБ, Здоровье: 100%

Anonymous

0
11|4

116
0

02 ноя 2014, 09:57

Anonymous Перейти к последнему сообщению

В этой теме нет новых непрочитанных сообщений. Скачать торрент Проверен Паранорман, или Как приручить зомби / ParaNorman (Крис Батлер, Сэм Фелл / Chris Butler, Sam Fell) [2012, США, Мультфильм, ужасы, фэнтези, комедия, приключения,, Blu-ray disc 1080p] BD3D Dub + Sub Eng + Original Eng

в форуме 3D Мультфильмы, Размер: 46.17 ГБ, Здоровье: 0%

Anonymous

0
0|0

2
0

07 сен 2016, 17:57

Anonymous Перейти к последнему сообщению

В этой теме нет новых непрочитанных сообщений. Скачать торрент Проверен Паранорман, или Как приручить зомби в 3Д / ParaNorman 3D (Крис Батлер, / Chris Butler,) [2012, Мультфильм, Фэнтези, Ужасы, Комедия, Приключения, Семейный, BDrip-AVC] Half OverUnder / Вертикальная анаморфная стереопара

в форуме HD-Video в 3D, Размер: 4.93 ГБ, Здоровье: 100%

Anonymous

0
41|13

60
0

02 ноя 2014, 09:53

Anonymous Перейти к последнему сообщению

В этой теме нет новых непрочитанных сообщений. Скачать торрент Братва, пушки и зомби / Gangsters, Guns and Zombies (2012) DVDRip | L1

в форуме Ужасы, Размер: 1.21 ГБ, Здоровье: 0%

Anonymous

0
0|0

33
0

19 янв 2014, 07:37

Anonymous Перейти к последнему сообщению



Сейчас этот форум просматривают: нет зарегистрированных пользователей и гости: 1


Вы не можете начинать темы
Вы не можете отвечать на сообщения
Вы не можете редактировать свои сообщения
Вы не можете удалять свои сообщения
Вы не можете добавлять вложения

Перейти:  

!ВНИМАНИЕ!
 Ресурс не предоставляет электронные версии произведений, а занимается лишь коллекционированием и каталогизацией ссылок, присылаемых и публикуемых на форуме нашими читателями. Если вы являетесь правообладателем какого-либо представленного материала и не желаете чтобы ссылка на него находилась в нашем каталоге, свяжитесь с нами и мы незамедлительно удалим её. Файлы для обмена на трекере предоставлены пользователями сайта, и администрация не несёт ответственности за их содержание. Просьба не заливать файлы, защищенные авторскими правами, а также файлы нелегального содержания!