На всех торрентах на трекере установлена скидка на скачивание в размере 100 процентов(а).
 Возможность скачивания торрента НЕ зависит от ограничений при низком ратио, низком аплоаде, требуемом ратио или требуемом аплоаде.


Начать новую тему Ответить на тему
Статистика раздачи
Размер: 1.45 ГБ | Добавлен: 06 янв 2015, 16:46 | Скачали: 65
Сидеров: 48  [0 байт/сек]    Личеров: 36  [0 байт/сек]
Пред. тема | След. тема 

Автор
Сообщение

СообщениеДобавлено: 06 янв 2015, 16:46 

Страна: Франция
Студия: Gaumont
Жанр: комедия, семейный, фантастика
Год выпуска: 1998
Продолжительность: 01:52:47

Перевод: Профессиональный (многоголосый закадровый) - Амальгама / Союз / DVD-Group
Режиссер: Жан-Мари Пуаре / Jean-Marie Poiré
В ролях: Кристиан Клавье, Жан Рено, Мюриэль Робен, Мари-Анн Шазель, Жан-Люк Карон, Патрик Бюржель, Эрик Аверлан, Армель, Пьер Виаль, Франк-Оливье Бонне



Описание: Во втором фильме пришельцы из прошлого (Рено и Клавье) возвращаются в будущее за украденными драгоценностями и реликвиями, так как в противном случае одному из них не удастся жениться. В настоящем они опять попадают в вереницу нелепейших и смешных приключений, тогда как в прошлом чуть было не лишается жизни пришелец из будущего, потомок другого героя, попадая в лапы инквизиции. (Михаил Иванов)

Качество HDTVRip [Open Matte] [HDTV 1080i by xfiles]
Контейнер: AVI
Видео 720x400 (1.80:1), 25 fps, XviD build 73 ~1639 kbps avg, 0.23 bit/pixel
Аудио : Русский, 48.0 KHz, AC3, 2 ch, 192 Kbps - Многоголосый закадровый | Амальгама / Союз / DVD-Group
Les.Couloirs.du.temps.Les.Visiteurs.2.P.1998.HDTVRip.Open.Matte.Deadmauvlad.1.46.GB.avi
Формат : AVI
Формат/Информация : Audio Video Interleave
Размер файла : 1,45 Гбайт
Продолжительность : 1 ч. 52 м.
Общий поток : 1841 Кбит/сек
Название фильма : Les.Couloirs.du.temps.Les.Visiteurs.2.P.1998.HDTVRip.Open.Matte.Deadmauvlad.1.46.GB
Режиссёр : R.G Goldenshara / Deadmauvlad.tv
Жанр : драма, мелодрама, комедия
Программа кодирования : VirtualDubMod 1.5.10.3 | http://www.virtualdub-fr.org || (build 2550/release)
Формат оригинала/Имя : Фильм

Видео
Идентификатор : 0
Формат : MPEG-4 Visual
Профиль формата : Advanced Simple@L5
Параметр BVOP формата : 1
Параметр QPel формата : Нет
Параметр GMC формата : Без точки перехода
Параметр матрицы формата : Выборочная
Идентификатор кодека : XVID
Идентификатор кодека/Подсказка : XviD
Продолжительность : 1 ч. 52 м.
Битрейт : 1640 Кбит/сек
Ширина : 720 пикселей
Высота : 400 пикселей
Соотношение сторон : 16:9
Частота кадров : 25,000 кадров/сек
Цветовое пространство : YUV
Субдискретизация насыщенности : 4:2:0
Битовая глубина : 8 бит
Тип развёртки : Прогрессивная
Метод сжатия : С потерями
Бит/(Пиксели*Кадры) : 0.228
Размер потока : 1,29 Гбайт (89%)
Библиотека кодирования : XviD 73

Аудио
Идентификатор : 1
Формат : AC-3
Формат/Информация : Audio Coding 3
Расширение режима : CM (complete main)
Параметр Endianness формата : Big
Идентификатор кодека : 2000
Продолжительность : 1 ч. 52 м.
Вид битрейта : Постоянный
Битрейт : 192 Кбит/сек
Каналы : 2 канала
Расположение каналов : Front: L R
Частота : 48,0 КГц
Битовая глубина : 16 бит
Метод сжатия : С потерями
Размер потока : 155 Мбайт (10%)
Выравнивание : Разделение по промежуткам
Продолжительность промежутка : 40 мс. (1,00 видеокадр)
Время предзагрузки промежутка : 500 мс.


загрузка...
Правила, инструкции, FAQ!!!
Торрент  Добавлен [06 янв 2015, 16:46] Скачать торрент
Скачать торрент
[ Размер 15.44 КБ / Просмотров 7 ]

Статус
Проверен 
 
Размер  1.45 ГБ
Приватный: Нет (DHT включён)
.torrent скачан  65
Как залить торрент? | Как скачать Torrent? | Как смотреть и слушать онлайн?  


     Отправить личное сообщение
   
Страница 1 из 1
Показать сообщения за:  Поле сортировки  
Начать новую тему Ответить на тему

   Похожие торренты   Автор   Ответы   Просмотры   Последнее сообщение 
В этой теме нет новых непрочитанных сообщений. Скачать торрент Проверен Пришельцы 2: Коридоры времени / Les visiteurs 2: Les couloirs du temps (1998) HDTV 1080p | Open Matte

в форуме 720p | 1080p, Размер: 7.42 ГБ, Здоровье: 100%

Anonymous

0
41|38

138
13

15 янв 2015, 19:33

Anonymous Перейти к последнему сообщению

В этой теме нет новых непрочитанных сообщений. Скачать торрент Проверен [VIDEO] Пришельцы 2: Коридоры Времени / Les couloirs du temps: Les visiteurs II (Жан-Мари Пуаре / Jean-Marie Poiré) [1998, фантастика, комедия, DVDRip] [MP4, 640x]

в форуме Видео для смартфонов и КПК, Размер: 977.08 МБ, Здоровье: 100%

Anonymous

0
19|8

92
2

02 авг 2014, 17:05

Anonymous Перейти к последнему сообщению

В этой теме нет новых непрочитанных сообщений. Скачать торрент Проверен Пираты Карибского моря: На краю Света / Pirates of the Caribbean: At World's End (2007) HDTVRip | Open Matte | D

в форуме Фантастика, Фэнтези, Размер: 2.61 ГБ, Здоровье: 100%

Гость

0
30|9

375
55

15 ноя 2015, 23:57

Гость Перейти к последнему сообщению

В этой теме нет новых непрочитанных сообщений. Скачать торрент Пришельцы / Les visiteurs (1993) BDRip

в форуме Фантастика, Фэнтези, Размер: 2.18 ГБ, Здоровье: 100%

Anonymous

0
40|4

49
303

12 дек 2013, 12:03

Anonymous Перейти к последнему сообщению

В этой теме нет новых непрочитанных сообщений. Скачать торрент Проверен Пришельцы / Les Visiteurs (1993) BDRip 720p

в форуме 720p | 1080p, Размер: 4.51 ГБ, Здоровье: 88%

Гость

0
40|45

86
32

19 авг 2015, 23:03

Гость Перейти к последнему сообщению



Сейчас этот форум просматривают: нет зарегистрированных пользователей и гости: 1


Вы не можете начинать темы
Вы не можете отвечать на сообщения
Вы не можете редактировать свои сообщения
Вы не можете удалять свои сообщения
Вы не можете добавлять вложения

Перейти:  

!ВНИМАНИЕ!
 Ресурс не предоставляет электронные версии произведений, а занимается лишь коллекционированием и каталогизацией ссылок, присылаемых и публикуемых на форуме нашими читателями. Если вы являетесь правообладателем какого-либо представленного материала и не желаете чтобы ссылка на него находилась в нашем каталоге, свяжитесь с нами и мы незамедлительно удалим её. Файлы для обмена на трекере предоставлены пользователями сайта, и администрация не несёт ответственности за их содержание. Просьба не заливать файлы, защищенные авторскими правами, а также файлы нелегального содержания!