На всех торрентах на трекере установлена скидка на скачивание в размере 100 процентов(а).
 Возможность скачивания торрента НЕ зависит от ограничений при низком ратио, низком аплоаде, требуемом ратио или требуемом аплоаде.


Начать новую тему Ответить на тему
Статистика раздачи
Размер: 1.72 ГБ | Добавлен: 03 янв 2015, 09:56 | Скачали: 0
Сидеров: 18  [0 байт/сек]    Личеров: 19  [0 байт/сек]
Пред. тема | След. тема 

Автор
Сообщение

СообщениеДобавлено: 03 янв 2015, 09:56 

Год выпуска: 2005
Производство: Германия, США
Жанр: Комедия, драма

Режиссер: Гор Вербински
Актеры: Николас Кейдж, Майкл Кейн, Хоуп Дэвис, Джеменн де ла Пенья, Николас Холт, Майкл Рисполи, Джил Беллоуз, Джудит МакКоннелл, Крис Маррс, Дина Фэклис

Описание фильма:
Дэйв Спиртс - один из тех счастливчиков, которым принято завидовать. Популярный ведущий прогноза погоды, он получает приглашение работать в крупном нью-йоркском телешоу. Деньги, признание, отличные перспективы - удача явно на его стороне. Но мысль об этом почему-то больше не греет. Пока «глашатай морозов и дождей» покорял профессиональные вершины, его личная жизнь полностью расстроилась. Из-за тяжелого развода, болезни отца и проблем с детьми Дэйв - на грани нервного срыва. И чем упорней он пытается контролировать ситуацию, тем больше понимает: жизнь так же непредсказуема, как и погода…

Перевод: Профессиональный многоголосый



Продолжительность: 01:37:33
Качество видео: HDTVRip

Видеокодек: XviD
Битрейт видео: ~1937 Кбит/с
Размер кадра: 720x384
Аудио:
1. AC3, 2 ch, 192 Кбит/с - русский
2. AC3, 6 ch, 384 Кбит/с - английский

Общее
Полное имя : C:\NNM\Синоптик\Sinoptik 2005 HDRip.avi
Формат : AVI
Формат/Информация : Audio Video Interleave
Профиль формата : OpenDML
Настройки формата : rec
Размер файла : 1,72 Гбайт
Продолжительность : 1 ч. 37 м.
Общий поток : 2521 Кбит/сек
Программа кодирования : AVI-Mux GUI 1.17.8.3, Feb 16 201019:42:50

Видео
Идентификатор : 0
Формат : MPEG-4 Visual
Профиль формата : Advanced Simple@L5
Параметр BVOP формата : 4
Параметр QPel формата : Нет
Параметр GMC формата : Без точки перехода
Параметр матрицы формата : Default (MPEG)
Идентификатор кодека : XVID
Идентификатор кодека/Подсказка : XviD
Продолжительность : 1 ч. 37 м.
Битрейт : 1937 Кбит/сек
Ширина : 720 пикселей
Высота : 384 пикселя
Соотношение сторон : 1,875
Частота кадров : 25,000 кадров/сек
Цветовое пространство : YUV
Субдискретизация насыщенности : 4:2:0
Битовая глубина : 8 бит
Тип развёртки : Прогрессивная
Метод сжатия : С потерями
Бит/(Пиксели*Кадры) : 0.280
Размер потока : 1,32 Гбайт (77%)
Библиотека кодирования : XviD 1.2.1 (UTC 2008-12-04)

Аудио #1
Идентификатор : 1
Формат : AC-3
Формат/Информация : Audio Coding 3
Расширение режима : CM (complete main)
Идентификатор кодека : 2000
Продолжительность : 1 ч. 37 м.
Вид битрейта : Постоянный
Битрейт : 192 Кбит/сек
Каналы : 2 канала
Расположение каналов : Front: L R
Частота : 48,0 КГц
Битовая глубина : 16 бит
Метод сжатия : С потерями
Размер потока : 134 Мбайт (8%)
Выравнивание : Соединение по промежуткам
Продолжительность промежутка : 64 мс. (1,60 видеокадра)
Время предзагрузки промежутка : 192 мс.

Аудио #2
Идентификатор : 2
Формат : AC-3
Формат/Информация : Audio Coding 3
Расширение режима : CM (complete main)
Идентификатор кодека : 2000
Продолжительность : 1 ч. 37 м.
Вид битрейта : Постоянный
Битрейт : 384 Кбит/сек
Каналы : 6 каналов
Расположение каналов : Front: L C R, Side: L R, LFE
Частота : 48,0 КГц
Битовая глубина : 16 бит
Метод сжатия : С потерями
Размер потока : 268 Мбайт (15%)
Выравнивание : Соединение по промежуткам
Продолжительность промежутка : 64 мс. (1,60 видеокадра)
Время предзагрузки промежутка : 192 мс.
Скриншоты:
загрузка...
Правила, инструкции, FAQ!!!
Торрент  Добавлен [03 янв 2015, 09:56] Скачать торрент
Скачать торрент
[ Размер 17.85 КБ / Просмотров 8 ]

Статус
Проверен 
 
Размер  1.72 ГБ
Приватный: Нет (DHT включён)
.torrent скачан  0
Как залить торрент? | Как скачать Torrent? | Как смотреть и слушать онлайн?  


     Отправить личное сообщение
   
Страница 1 из 1
Показать сообщения за:  Поле сортировки  
Начать новую тему Ответить на тему

   Похожие торренты   Автор   Ответы   Просмотры   Последнее сообщение 
В этой теме нет новых непрочитанных сообщений. Скачать торрент Проверен Weather Report - Heavy Weather (1977) [FLAC]<Jazz-Rock,Fusion>

в форуме Джаз, Блюз, Соул, Размер: 249.29 МБ, Здоровье: 100%

Anonymous

0
77|11

32
2

05 сен 2015, 22:39

Anonymous Перейти к последнему сообщению

В этой теме нет новых непрочитанных сообщений. Скачать торрент Проверен [SACD-R][OF] Weather Report – Heavy Weather - 1977/2002 (Jazz fusion)

в форуме Hi-Res stereo (Джаз и Блюз), Размер: 1.59 ГБ, Здоровье: 100%

Anonymous

0
12|3

11
2

27 авг 2016, 13:34

Anonymous Перейти к последнему сообщению

В этой теме нет новых непрочитанных сообщений. Скачать торрент Проверен [TR24][OF] Weather Report - Heavy Weather - 1977/2012 (Jazz-Rock, Fusion)

в форуме Hi-Res stereo (Джаз и Блюз), Размер: 1.63 ГБ, Здоровье: 100%

Anonymous

0
9|3

2
0

27 авг 2016, 13:05

Anonymous Перейти к последнему сообщению

В этой теме нет новых непрочитанных сообщений. Скачать торрент Проверен [DVDA][SA] Weather Report - Heavy Weather - 1977 (Jazz)

в форуме Hi-Res stereo (Джаз и Блюз), Размер: 1.27 ГБ, Здоровье: 100%

Anonymous

0
3|1

5
0

27 авг 2016, 12:41

Anonymous Перейти к последнему сообщению

В этой теме нет новых непрочитанных сообщений. Скачать торрент Проверен Alanis Morissette - Crazy(Conan O'Brien 18.11.2005) HD - 1080i ts (NBC) [2005, Rock, HDTVRip]

в форуме Концерты (HD-Video), Размер: 470.85 МБ, Здоровье: 0%

Anonymous

0
0|0

0
0

23 окт 2016, 10:40

Anonymous Перейти к последнему сообщению



Сейчас этот форум просматривают: нет зарегистрированных пользователей и гости: 1


Вы не можете начинать темы
Вы не можете отвечать на сообщения
Вы не можете редактировать свои сообщения
Вы не можете удалять свои сообщения
Вы не можете добавлять вложения

Перейти:  

!ВНИМАНИЕ!
 Ресурс не предоставляет электронные версии произведений, а занимается лишь коллекционированием и каталогизацией ссылок, присылаемых и публикуемых на форуме нашими читателями. Если вы являетесь правообладателем какого-либо представленного материала и не желаете чтобы ссылка на него находилась в нашем каталоге, свяжитесь с нами и мы незамедлительно удалим её. Файлы для обмена на трекере предоставлены пользователями сайта, и администрация не несёт ответственности за их содержание. Просьба не заливать файлы, защищенные авторскими правами, а также файлы нелегального содержания!