На всех торрентах на трекере установлена скидка на скачивание в размере 100 процентов(а).
 Возможность скачивания торрента НЕ зависит от ограничений при низком ратио, низком аплоаде, требуемом ратио или требуемом аплоаде.


Начать новую тему Ответить на тему
Статистика раздачи
Размер: 1.37 ГБ | Добавлен: 11 дек 2014, 21:12 | Скачали: 0
Сидеров: 3  [0 байт/сек]    Личеров: 1  [0 байт/сек]
Пред. тема | След. тема 

Автор
Сообщение

СообщениеДобавлено: 11 дек 2014, 21:12 

Год выпуска: 1985
Жанр: Боевик, Комедия, Криминал
Производство: Италия / El Pico S.A., Trans-Cinema TV

Описание фильма:
В 1978 году трое грабителей украли из Детройтского Национального Банка 20 миллионов долларов. Один из них вскоре после ограбления был найден мертвым, второй бесследно изчез, а третий был пойман и отсидев 8 лет в тюрьме вышел на свободу. Теперь он хочет найти подельников и забрать у них свою долю. Агенты ФБР Даг Беннет и Стив Форрест работающие под прикрытием, во что бы то ни стало должны схватить преступников и вернуть похищенные деньги.

Режиссер: Бруно Корбуччи
Сценарий: Бруно Корбуччи, Лучиано Винчензони
Продюсер: Джоси В. Конски, Макс Волкофф
Актеры: Теренс Хилл, Бад Спенсер, С.Б. Сиэй, Уильям «Бо» Джим, Кен Кересн, Джеки Кастеллано, С.В. Вуд мл., Ричард Либерти, Ронда С. Лундстид, Баффи Ди

Продолжительность: 01:32:58
Качество видео: DVDRip
Перевод: Авторский, А.Гаврилов
Субтитры: Отсутствуют



Дата мировой премьеры: 12 декабря 1985

Видеокодек: MPEG-4 AVC/H.264
Битрейт видео: ~1855 Кбит/сек
Размер кадра: 720x400
Аудиокодек: AC3 2.0
Битрейт аудио: 256 Кбит/сек
Сэмпл: Скачать
Общее
Уникальный идентификатор : 217370001460426922742935984728691597929 (0xA387F081EB607654B876784ED6F26269)
Полное имя : F:\Downloads\Суперполицейские из Майами.mkv
Формат : Matroska
Версия формата : Version 4 / Version 2
Размер файла : 1,37 Гбайт
Продолжительность : 1 ч. 32 м.
Общий поток : 2113 Кбит/сек
Дата кодирования : UTC 2014-12-03 08:54:20
Программа кодирования : mkvmerge v7.0.0 ('Where We Going') 32bit built on Jun 9 2014 15:08:34
Библиотека кодирования : libebml v1.3.0 + libmatroska v1.4.1
DURATION : 01:32:58.304000000
NUMBER_OF_FRAMES : 174322
NUMBER_OF_BYTES : 178505728
_STATISTICS_WRITING_APP : mkvmerge v7.0.0 ('Where We Going') 32bit built on Jun 9 2014 15:08:34
_STATISTICS_WRITING_DATE_UTC : 2014-12-03 08:54:20
_STATISTICS_TAGS : BPS DURATION NUMBER_OF_FRAMES NUMBER_OF_BYTES

Видео
Идентификатор : 1
Формат : AVC
Формат/Информация : Advanced Video Codec
Профиль формата :
Параметр CABAC формата : Да
Параметр ReFrames формата : 8 кадров
Идентификатор кодека : V_MPEG4/ISO/AVC
Продолжительность : 1 ч. 32 м.
Битрейт : 1855 Кбит/сек
Ширина : 720 пикселей
Высота : 400 пикселей
Соотношение сторон : 16:9
Режим частоты кадров : Постоянный
Частота кадров : 25,000 кадров/сек
Цветовое пространство : YUV
Субдискретизация насыщенности : 4:2:0
Битовая глубина : 8 бит
Тип развёртки : Прогрессивная
Бит/(Пиксели*Кадры) : 0.258
Размер потока : 1,18 Гбайт (86%)
Заголовок : Miami supercops
Библиотека кодирования : x264 core 125 r2208 d9d2288
Настройки программы : cabac=1 / ref=8 / deblock=1:-1:-1 / analyse=0x3:0x133 / me=umh / subme=9 / psy=1 / psy_rd=1.00:0.10 / mixed_ref=1 / me_range=32 / chroma_me=1 / trellis=2 / 8x8dct=1 / cqm=0 / deadzone=21,11 / fast_pskip=0 / chroma_qp_offset=-3 / threads=6 / lookahead_threads=1 / sliced_threads=0 / nr=0 / decimate=1 / interlaced=0 / bluray_compat=0 / constrained_intra=0 / bframes=3 / b_pyramid=2 / b_adapt=2 / b_bias=0 / direct=3 / weightb=1 / open_gop=0 / weightp=2 / keyint=250 / keyint_min=25 / scenecut=40 / intra_refresh=0 / rc_lookahead=60 / rc=2pass / mbtree=1 / bitrate=1855 / ratetol=1.0 / qcomp=0.60 / qpmin=0 / qpmax=69 / qpstep=4 / cplxblur=20.0 / qblur=0.5 / ip_ratio=1.40 / aq=1:1.00
Язык : English
Default : Да
Forced : Нет

Аудио
Идентификатор : 2
Формат : AC-3
Формат/Информация : Audio Coding 3
Расширение режима : CM (complete main)
Параметр Endianness формата : Big
Идентификатор кодека : A_AC3
Продолжительность : 1 ч. 32 м.
Вид битрейта : Постоянный
Битрейт : 256 Кбит/сек
Каналы : 2 канала
Расположение каналов : Front: L R
Частота : 48,0 КГц
Битовая глубина : 16 бит
Метод сжатия : С потерями
Размер потока : 170 Мбайт (12%)
Заголовок : Авторский, А.Гаврилов
Язык : Russian
Default : Да
Forced : Нет
Скриншоты:

загрузка...
Правила, инструкции, FAQ!!!
Торрент  Добавлен [11 дек 2014, 21:12] Скачать торрент
Скачать торрент
[ Размер 14.59 КБ / Просмотров 10 ]

Статус
Проверен 
 
Размер  1.37 ГБ
Приватный: Нет (DHT включён)
.torrent скачан  0
Как залить торрент? | Как скачать Torrent? | Как смотреть и слушать онлайн?  


     Отправить личное сообщение
   
Страница 1 из 1
Показать сообщения за:  Поле сортировки  
Начать новую тему Ответить на тему

   Похожие торренты   Автор   Ответы   Просмотры   Последнее сообщение 
В этой теме нет новых непрочитанных сообщений. Скачать торрент Проверен Steven Raichlen - Miami Spice: The New Florida Cuisine / Специи Майами: Новая кухня Флориды [1993, MOBI, ENG]

в форуме Кулинария, Размер: 12.84 МБ, Здоровье: 100%

Anonymous

0
1|0

3
1

19 окт 2016, 21:25

Anonymous Перейти к последнему сообщению

В этой теме нет новых непрочитанных сообщений. Скачать торрент Полиция Майами: Отдел нравов / Miami Vice (Майкл Манн / Michael Mann) [2006 г., боевик, триллер, драма, криминал, BDRip-AVC] [Unrated Director's Edition] Dub

в форуме Боевики, Размер: 2.91 ГБ, Здоровье: 100%

Anonymous

0
12|4

79
0

15 апр 2014, 08:18

Anonymous Перейти к последнему сообщению

В этой теме нет новых непрочитанных сообщений. Скачать торрент Проверен (Pop) Майами - Майами - 1999, MP3 (tracks), 320 kbps

в форуме Отечественная музыка, Размер: 96.51 МБ, Здоровье: 100%

Anonymous

0
2|1

9
0

30 июл 2016, 15:30

Anonymous Перейти к последнему сообщению

В этой теме нет новых непрочитанных сообщений. Скачать торрент Проверен (Pop) Майами - Это же майами - 1997, MP3, 320 kbps

в форуме Отечественная музыка, Размер: 126.93 МБ, Здоровье: 100%

Anonymous

0
5|1

13
0

30 июл 2016, 15:18

Anonymous Перейти к последнему сообщению

В этой теме нет новых непрочитанных сообщений. Скачать торрент Проверен (Pop / Synth-pop) Gloria Estefan and Miami Sound Machine - Primitive Love - 1985, FLAC (image+.cue), lossless

в форуме Зарубежная музыка, Размер: 238.57 МБ, Здоровье: 0%

Anonymous

0
0|0

2
0

15 авг 2016, 17:01

Anonymous Перейти к последнему сообщению



Сейчас этот форум просматривают: нет зарегистрированных пользователей и гости: 1


Вы не можете начинать темы
Вы не можете отвечать на сообщения
Вы не можете редактировать свои сообщения
Вы не можете удалять свои сообщения
Вы не можете добавлять вложения

Перейти:  

!ВНИМАНИЕ!
 Ресурс не предоставляет электронные версии произведений, а занимается лишь коллекционированием и каталогизацией ссылок, присылаемых и публикуемых на форуме нашими читателями. Если вы являетесь правообладателем какого-либо представленного материала и не желаете чтобы ссылка на него находилась в нашем каталоге, свяжитесь с нами и мы незамедлительно удалим её. Файлы для обмена на трекере предоставлены пользователями сайта, и администрация не несёт ответственности за их содержание. Просьба не заливать файлы, защищенные авторскими правами, а также файлы нелегального содержания!