На всех торрентах на трекере установлена скидка на скачивание в размере 100 процентов(а).
 Возможность скачивания торрента НЕ зависит от ограничений при низком ратио, низком аплоаде, требуемом ратио или требуемом аплоаде.


Начать новую тему Ответить на тему
Статистика раздачи
Размер: 1.46 ГБ | Добавлен: 28 ноя 2014, 23:47 | Скачали: 1
Сидеров: 7  [0 байт/сек]    Личеров: 0  [0 байт/сек]
Пред. тема | След. тема 

Автор
Сообщение

СообщениеДобавлено: 28 ноя 2014, 23:47 


Страна: Франция / 22h22, A Plus Image 4, Avalon, Canal+ [fr], Centre National de la Cinématographie (CNC), Ciné, Gaumont, Jouror Distribution, Région Aquitaine, Région Midi-Pyrénées

Жанр: комедия, музыка
Год выпуска: 2013
Продолжительность: 01:34:32

Перевод: Профессиональный (многоголосый закадровый)
Cубтитры: нет
Оригинальная аудиодорожка: нет

Режиссер: Мартин Ле Галь / Martin Le Gall

В ролях: Жюльен Доре, Грегори Гадебуа, Джонатан Коэн, Ясин Белусс, Одри Флеро, Александр Астье, Делия Эпина-Диэф, Арсен Моска, Кристоф Курочкин, Винсент Ленардт...

Описание: Рокеров со стажем, играющих в стиле блэк-металл, приглашают принять участие в крупном рок-фестивале, проходящем во Франции. Не то чтобы их группа была очень популярной, просто во всей Франции металлистов раз, два и обчелся. Парни решают воспользоваться шансом и тряхнуть стариной. Но в дороге с ним происходит казус — по нелепой случайности в аварии погибает человек. Парни уверены, что теперь им светит тюрьма. Они решают скрыться от полиции, чтобы успеть выступить на фестивале своей мечты. Однако туда еще надо добраться. Для этого им придется отложить в стороны свои рокерские прикиды и резко сменить имидж, выдавая себя за группу хиппи, поющих про любовь и мир во всем мире. А это для брутальных рокеров будет сделать ой как не просто!



Качество: HDRip / DVD5 R5 - лицензионный диск от CD Land + Pop.Redemption.2013.720p.BluRay.DD5.1.x264-EbP
Формат: AVI

Видео: 720x304 (2.39:1), XViD, 1749 kbps / 24,000 fps / bit/pix=0.333
Аудио: Russian: 48 kHz, AC3, 3/2 (L,C,R,l,r) + LFE ch, 448.00 kbps constant

Раздача от:
General
Format : AVI
Format/Info : Audio Video Interleave
File size : 1.46 GiB
Duration : 1h 34mn
Overall bit rate : 2 207 Kbps
Writing application : VirtualDubModRus 1.5.10.2 (build 2542/release)
Writing library : VirtualDubMod build 2542/release

Video
ID : 0
Format : MPEG-4 Visual
Format profile : Advanced Simple@L5
Format settings, BVOP : 1
Format settings, QPel : No
Format settings, GMC : No warppoints
Format settings, Matrix : Custom
Codec ID : XVID
Codec ID/Hint : XviD
Duration : 1h 34mn
Bit rate : 1 749 Kbps
Width : 720 pixels
Height : 304 pixels
Display aspect ratio : 2.35:1
Frame rate : 24.000 fps
Color space : YUV
Chroma subsampling : 4:2:0
Bit depth : 8 bits
Scan type : Progressive
Compression mode : Lossy
Bits/(Pixel*Frame) : 0.333
Stream size : 1.16 GiB (79%)
Writing library : XviD 73

Audio
ID : 1
Format : AC-3
Format/Info : Audio Coding 3
Mode extension : CM (complete main)
Format settings, Endianness : Big
Codec ID : 2000
Duration : 1h 34mn
Bit rate mode : Constant
Bit rate : 448 Kbps
Channel(s) : 6 channels
Channel positions : Front: L C R, Side: L R, LFE
Sampling rate : 48.0 KHz
Bit depth : 16 bits
Compression mode : Lossy
Stream size : 303 MiB (20%)
Alignment : Split accross interleaves
Interleave, duration : 42 ms (1.00 video frame)
Interleave, preload duration : 500 ms


загрузка...
Правила, инструкции, FAQ!!!
Торрент  Добавлен [28 ноя 2014, 23:47] Скачать торрент
Скачать торрент
[ Размер 15.28 КБ / Просмотров 5 ]

Статус
Проверен 
 
Размер  1.46 ГБ
Приватный: Нет (DHT включён)
.torrent скачан  1
Как залить торрент? | Как скачать Torrent? | Как смотреть и слушать онлайн?  


     Отправить личное сообщение
   
Страница 1 из 1
Показать сообщения за:  Поле сортировки  
Начать новую тему Ответить на тему

   Похожие торренты   Автор   Ответы   Просмотры   Последнее сообщение 
В этой теме нет новых непрочитанных сообщений. Скачать торрент Добро пожаловать в джунгли / Welcome to the Jungle (2013) HDRip

в форуме Комедии, Размер: 1.37 ГБ, Здоровье: 100%

Anonymous

0
18|1

124
0

08 фев 2014, 21:17

Anonymous Перейти к последнему сообщению

В этой теме нет новых непрочитанных сообщений. Скачать торрент Добро пожаловать в капкан / Welcome to the Punch (2013) HDRip-AVC | A

в форуме 720p | 1080p, Размер: 741.08 МБ, Здоровье: 100%

Anonymous

0
9|1

162
41

23 янв 2014, 20:31

Anonymous Перейти к последнему сообщению

В этой теме нет новых непрочитанных сообщений. Скачать торрент Добро пожаловать в капкан / Welcome to the Punch (2013) HDRip | Чистый звук

в форуме Боевики, Размер: 1.36 ГБ, Здоровье: 100%

Anonymous

0
184|5

128
1392

30 мар 2014, 14:18

Anonymous Перейти к последнему сообщению

В этой теме нет новых непрочитанных сообщений. Скачать торрент Проверен Добро пожаловать в Нью-Йорк / Welcome to New York (2014) DVDRip | Лицензия

в форуме Драмы, Мелодрамы, Размер: 1.45 ГБ, Здоровье: 100%

Anonymous

0
216|7

58
1513

22 авг 2014, 12:06

Anonymous Перейти к последнему сообщению

В этой теме нет новых непрочитанных сообщений. Скачать торрент Проверен Добро пожаловать в Лэйквью / Lakeview Terrace (2008) BDRip 720p | P | Лицензия

в форуме 720p | 1080p, Размер: 4.23 ГБ, Здоровье: 100%

Гость

0
36|7

70
26

04 авг 2016, 20:36

Гость Перейти к последнему сообщению



Сейчас этот форум просматривают: нет зарегистрированных пользователей и гости: 1


Вы не можете начинать темы
Вы не можете отвечать на сообщения
Вы не можете редактировать свои сообщения
Вы не можете удалять свои сообщения
Вы не можете добавлять вложения

Перейти:  

!ВНИМАНИЕ!
 Ресурс не предоставляет электронные версии произведений, а занимается лишь коллекционированием и каталогизацией ссылок, присылаемых и публикуемых на форуме нашими читателями. Если вы являетесь правообладателем какого-либо представленного материала и не желаете чтобы ссылка на него находилась в нашем каталоге, свяжитесь с нами и мы незамедлительно удалим её. Файлы для обмена на трекере предоставлены пользователями сайта, и администрация не несёт ответственности за их содержание. Просьба не заливать файлы, защищенные авторскими правами, а также файлы нелегального содержания!