На всех торрентах на трекере установлена скидка на скачивание в размере 100 процентов(а).
 Возможность скачивания торрента НЕ зависит от ограничений при низком ратио, низком аплоаде, требуемом ратио или требуемом аплоаде.


Начать новую тему Ответить на тему
Статистика раздачи
Размер: 1.44 ГБ | Добавлен: 28 ноя 2014, 20:51 | Скачали: 0
Сидеров: 65  [0 байт/сек]    Личеров: 12  [0 байт/сек]
Пред. тема | След. тема 

Автор
Сообщение

СообщениеДобавлено: 28 ноя 2014, 20:51 

Год выпуска: 2013
Производство: Польша
Жанр: Комедия, Драма

Описание фильма:
Этот фильм рассказывает историю двух братьев – Томека и Яцека – и их соседки Магды, каждый из которых по-своему одинок. Например, Томек ведет уединенный образ жизни из-за неврологического заболевания, а Яцек привык контактировать с внешним миром исключительно через Интернет. Но однажды Яцек вынужден отправиться на деловую встречу в другой город. Беспокоясь о своем гениальном брате, он поручает заботу о нем Магде, не зная о том, что их вынужденное общение положит начало близким довольно любопытны отношениям ...

Режиссер: Бодо Кокс
Актеры: Войчех Мецвалдовский, Петр Гловацкий, Магдалена Рузанская, Эрик Лубос, Тереса Савицкая, Ольга Боладз, Магдалена Поплавская, Себастьян Станкевич, Войчех Каларус, Марцела Станко, Томас Майер

Продолжительность: 01:27:46
Качество видео: DVDRip
Перевод: Одноголосый закадровый [PashaUp]
Автор перевода: [Professor]



Дата мировой премьеры: 14 апреля 2013

Видеокодек: Xvid
Битрейт видео: ~2149 kb/s
Размер кадра: 720x400
Аудиокодек: AC3 2.0
Битрейт аудио: 192 kb/s
Сэмпл: Ссылка
Общее
Полное имя : E:\Фильмы\Девушка.из.шкафа.2013.DVDRip.avi
Формат : AVI
Формат/Информация : Audio Video Interleave
Размер файла : 1,44 Гбайт
Продолжительность : 1 ч. 27 м.
Общий поток : 2351 Кбит/сек
Программа кодирования : VirtualDubMod 1.5.10.2 (build 2542/release)
Библиотека кодирования : VirtualDubMod build 2542/release

Видео
Идентификатор : 0
Формат : MPEG-4 Visual
Профиль формата : Advanced Simple@L5
Параметр BVOP формата : 2
Параметр QPel формата : Нет
Параметр GMC формата : Без точки перехода
Параметр матрицы формата : Выборочная
Идентификатор кодека : XVID
Идентификатор кодека/Подсказка : XviD
Продолжительность : 1 ч. 27 м.
Битрейт : 2150 Кбит/сек
Ширина : 720 пикселей
Высота : 400 пикселей
Соотношение сторон : 16:9
Частота кадров : 25,000 кадров/сек
Цветовое пространство : YUV
Субдискретизация насыщенности : 4:2:0
Битовая глубина : 8 бит
Тип развёртки : Прогрессивная
Метод сжатия : С потерями
Бит/(Пиксели*Кадры) : 0.299
Размер потока : 1,32 Гбайт (91%)
Библиотека кодирования : XviD 1.2.1 (UTC 2008-12-04)

Аудио
Идентификатор : 1
Формат : AC-3
Формат/Информация : Audio Coding 3
Расширение режима : CM (complete main)
Параметр Endianness формата : Big
Идентификатор кодека : 2000
Продолжительность : 1 ч. 27 м.
Вид битрейта : Постоянный
Битрейт : 192 Кбит/сек
Каналы : 2 канала
Расположение каналов : Front: L R
Частота : 48,0 КГц
Битовая глубина : 16 бит
Метод сжатия : С потерями
Размер потока : 121 Мбайт (8%)
Выравнивание : Разделение по промежуткам
Продолжительность промежутка : 40 мс. (1,00 видеокадр)
Время предзагрузки промежутка : 500 мс.
Скриншоты:




загрузка...
Правила, инструкции, FAQ!!!
Торрент  Добавлен [28 ноя 2014, 20:51] Скачать торрент
Скачать торрент
[ Размер 15.18 КБ / Просмотров 18 ]

Статус
Проверен 
 
Размер  1.44 ГБ
Приватный: Нет (DHT включён)
.torrent скачан  0
Как залить торрент? | Как скачать Torrent? | Как смотреть и слушать онлайн?  


     Отправить личное сообщение
   
Страница 1 из 1
Показать сообщения за:  Поле сортировки  
Начать новую тему Ответить на тему

   Похожие торренты   Автор   Ответы   Просмотры   Последнее сообщение 
В этой теме нет новых непрочитанных сообщений. Скачать торрент Проверен [iPod] Трилогия: Миллениум (Девушка с татуировкой дракона , Девушка, которая играла с огнём, Девушка, которая взрывала воздушные замки) / The Girl with the Dragon Tattoo, The Girl Who Played with Fire, The Girl Who Kicked the Hornet’s Nest[2009 г.,Тр

в форуме Фильмы для iPod, iPhone, iPad, Размер: 1.83 ГБ, Здоровье: 100%

Anonymous

0
32|10

167
0

12 май 2015, 00:07

Anonymous Перейти к последнему сообщению

В этой теме нет новых непрочитанных сообщений. Скачать торрент Девушка из кафе / The Girl in the Café (2005) DVDRip

в форуме Драмы, Мелодрамы, Размер: 1.46 ГБ, Здоровье: 0%

Anonymous

0
0|0

31
1

14 янв 2014, 21:31

Anonymous Перейти к последнему сообщению

В этой теме нет новых непрочитанных сообщений. Скачать торрент Чего хочет девушка / What A Girl Wants (2003) DVDRip

в форуме Комедии, Размер: 1.46 ГБ, Здоровье: 0%

Anonymous

0
0|0

33
0

20 янв 2014, 12:27

Anonymous Перейти к последнему сообщению

В этой теме нет новых непрочитанных сообщений. Скачать торрент Проверен Zoё Elizabeth Sugg / Сагг, Зои - Girl Online / Девушка Online; Girl Online: On Tour / Девушка Online: в турне [2016, PDF/DjVu/FB2, RUS]

в форуме Зарубежная литература (XX и XXI век), Размер: 34.9 МБ, Здоровье: 0%

Anonymous

0
0|0

3
0

08 сен 2016, 19:44

Anonymous Перейти к последнему сообщению

В этой теме нет новых непрочитанных сообщений. Скачать торрент Провинциалка / Девушка из пригорода / Suburban Girl (2007) DVDRip | Р

в форуме Драмы, Мелодрамы, Размер: 1.45 ГБ, Здоровье: 0%

Anonymous

0
0|0

50
2

18 янв 2014, 21:02

Anonymous Перейти к последнему сообщению



Сейчас этот форум просматривают: нет зарегистрированных пользователей и гости: 1


Вы не можете начинать темы
Вы не можете отвечать на сообщения
Вы не можете редактировать свои сообщения
Вы не можете удалять свои сообщения
Вы не можете добавлять вложения

Перейти:  

!ВНИМАНИЕ!
 Ресурс не предоставляет электронные версии произведений, а занимается лишь коллекционированием и каталогизацией ссылок, присылаемых и публикуемых на форуме нашими читателями. Если вы являетесь правообладателем какого-либо представленного материала и не желаете чтобы ссылка на него находилась в нашем каталоге, свяжитесь с нами и мы незамедлительно удалим её. Файлы для обмена на трекере предоставлены пользователями сайта, и администрация не несёт ответственности за их содержание. Просьба не заливать файлы, защищенные авторскими правами, а также файлы нелегального содержания!