На всех торрентах на трекере установлена скидка на скачивание в размере 100 процентов(а).
 Возможность скачивания торрента НЕ зависит от ограничений при низком ратио, низком аплоаде, требуемом ратио или требуемом аплоаде.


Начать новую тему Ответить на тему
Статистика раздачи
Размер: 1.71 ГБ | Добавлен: 24 ноя 2014, 22:06 | Скачали: 0
Сидеров: 34  [0 байт/сек]    Личеров: 12  [0 байт/сек]
Пред. тема | След. тема 

Автор
Сообщение

СообщениеДобавлено: 24 ноя 2014, 22:06 

Страна: Чехия
Жанр: комедия
Год выпуска: 2013
Продолжительность: 02:07:30

Перевод: Одноголосый закадровый (женский) Kass
Cубтитры: нет
Оригинальная аудиодорожка: чешский

Режиссер: Зденек Трошка / Zdeněk Troška

В ролях: Лукаш Лангмайер / Lukáš Langmajer, Вероника Жилкова / Veronika Žilková, Павел Кикинчук / Pavel Kikinčuk, Люция Вондрачкова / Lucie Vondráčková, Ян Доланский / Jan Dolanský, Яна Сынкова / Jana Synková, Яна Алтманнова / Jana Altmannová, Мирослав Нога / Miro Noga, Итка Седлачкова / Jitka Sedláčková, Люция Била / Lucie Bílá, Иржи Пеха / Jiří Pecha, Ян Кужелка / Jan Kuželka и др.

Описание: Все начинается с того, что в деревню Бабаёжки приезжает новый проповедник, «с виду - физрук, по годам - пацан» и вдобавок с неприличной фамилией. Серия недоразумений ведет к нелепейшим ситуациям. Здесь есть все: любовь, ревность, зависть, интриги, даже поиски сокровищ в доме с привидениями.
Что комедия пародийная, режиссер дает понять с первых же кадров – неестественными, лубочными красками и всем антуражем. Здесь высмеивается бОльшая часть современных комедийных клише, да и сам чешский менталитет.
Интересно, что довольно много чехов приняло фильм всерьез и возмущалось его «низкопробностью», хотя речь как раз о низкопробности современной комедии. Зденек Трошка не объяснил этого прямо. Видимо, ему было интересно, кто вместо лопаты наступит на грабли.



Сэмпл: http://yadi.sk/d/jRiWAkbDKcnaq

Качество видео: DVDRip
Формат видео: AVI

Видео: 720x400 (1.80:1), 25 fps, XviD build 64 ~1081 kbps avg, 0.15 bit/pixel
Аудио 1: Русский (Dolby AC3, 6 ch) 448 Кбит/сек, 48,0 КГц
Аудио 2: Cesky (Dolby AC3, 6 ch) 384 Кбит/сек, 48,0 КГц - отдельным файлом
Complete name : C:\Downloads\Babovresky_2013_DVDrip_R2_RusVO+Cze\Babovresky_2013_DVDrip_R2_RusVO.avi
Format : AVI
Format/Info : Audio Video Interleave
File size : 1.37 GiB
Duration : 2h 7mn
Overall bit rate : 1 539 Kbps
Writing library : VirtualDub build 32842/release

Video
ID : 0
Format : MPEG-4 Visual
Format profile : Advanced Simple@L5
Format settings, BVOP : 1
Format settings, QPel : No
Format settings, GMC : No warppoints
Format settings, Matrix : Default (H.263)
Codec ID : XVID
Codec ID/Hint : XviD
Duration : 2h 7mn
Bit rate : 1 082 Kbps
Width : 720 pixels
Height : 400 pixels
Display aspect ratio : 16:9
Frame rate : 25.000 fps
Color space : YUV
Chroma subsampling : 4:2:0
Bit depth : 8 bits
Scan type : Progressive
Compression mode : Lossy
Bits/(Pixel*Frame) : 0.150
Stream size : 987 MiB (70%)
Writing library : XviD 64

Audio
ID : 1
Format : AC-3
Format/Info : Audio Coding 3
Mode extension : CM (complete main)
Format settings, Endianness : Big
Codec ID : 2000
Duration : 2h 7mn
Bit rate mode : Constant
Bit rate : 448 Kbps
Channel(s) : 6 channels
Channel positions : Front: L C R, Side: L R, LFE
Sampling rate : 48.0 KHz
Bit depth : 16 bits
Compression mode : Lossy
Stream size : 409 MiB (29%)
Alignment : Aligned on interleaves
Interleave, duration : 40 ms (1.00 video frame)
Interleave, preload duration : 512 ms
загрузка...
Правила, инструкции, FAQ!!!
Торрент  Добавлен [24 ноя 2014, 22:06] Скачать торрент
Скачать торрент
[ Размер 17.76 КБ / Просмотров 15 ]

Статус
Проверен 
 
Размер  1.71 ГБ
Приватный: Нет (DHT включён)
.torrent скачан  0
Как залить торрент? | Как скачать Torrent? | Как смотреть и слушать онлайн?  


     Отправить личное сообщение
   
Страница 1 из 1
Показать сообщения за:  Поле сортировки  
Начать новую тему Ответить на тему

   Похожие торренты   Автор   Ответы   Просмотры   Последнее сообщение 
В этой теме нет новых непрочитанных сообщений. Скачать торрент Проверен [iPad] Коля / Kolya (Ян Сверак/ Jan Sverák) [1996, Чехия, Комедия, драма, музыка, HDRip, 576p] AVO (Кузнецов) + Original + rus sub

в форуме Фильмы для iPod, iPhone, iPad, Размер: 1.81 ГБ, Здоровье: 100%

Anonymous

0
5|2

28
0

14 май 2015, 00:23

Anonymous Перейти к последнему сообщению

В этой теме нет новых непрочитанных сообщений. Скачать торрент Участники турпоездки / Ucastnici zajezdu (Иржи Вейделек / Jiri Vejdelek) [2006, Чехия, Комедия, мелодрама, DVDRip]

в форуме Комедии, Размер: 1.45 ГБ, Здоровье: 33%

Anonymous

0
7|21

91
0

02 апр 2014, 08:22

Anonymous Перейти к последнему сообщению

В этой теме нет новых непрочитанных сообщений. Скачать торрент Проверен [iPad] Розовая пантера / The Pink Panther (Шон Леви/ Shawn Levy) [2006, США, Чехия, Комедия, криминал, детектив, приключения, BDRip, 576p] Dub + Original + sub (rus, eng)

в форуме Фильмы для iPod, iPhone, iPad, Размер: 1.59 ГБ, Здоровье: 100%

Anonymous

0
7|2

351
0

12 май 2015, 00:06

Anonymous Перейти к последнему сообщению

В этой теме нет новых непрочитанных сообщений. Скачать торрент Иллюзионист / The Illusionist (Нил Бёргер / Neil Burger) [2006, США, Чехия, Мистика, мелодрама, детектив, BDRip-AVC] Dub + Sub Rus, Eng + Original Eng

в форуме 720p | 1080p, Размер: 748.21 МБ, Здоровье: 100%

Anonymous

0
34|11

46
0

04 фев 2014, 21:27

Anonymous Перейти к последнему сообщению

В этой теме нет новых непрочитанных сообщений. Скачать торрент Проверен [iPad] Человек, который смеется / L'homme qui rit (Жан-Пьер Амери/ Jean-Pierre Améris) [2012, Франция, Чехия, Драма, BDRip, 576p] MVO + Original

в форуме Фильмы для iPod, iPhone, iPad, Размер: 1.61 ГБ, Здоровье: 100%

Anonymous

0
2|1

38
0

14 май 2015, 00:21

Anonymous Перейти к последнему сообщению



Сейчас этот форум просматривают: нет зарегистрированных пользователей и гости: 1


Вы не можете начинать темы
Вы не можете отвечать на сообщения
Вы не можете редактировать свои сообщения
Вы не можете удалять свои сообщения
Вы не можете добавлять вложения

Перейти:  

!ВНИМАНИЕ!
 Ресурс не предоставляет электронные версии произведений, а занимается лишь коллекционированием и каталогизацией ссылок, присылаемых и публикуемых на форуме нашими читателями. Если вы являетесь правообладателем какого-либо представленного материала и не желаете чтобы ссылка на него находилась в нашем каталоге, свяжитесь с нами и мы незамедлительно удалим её. Файлы для обмена на трекере предоставлены пользователями сайта, и администрация не несёт ответственности за их содержание. Просьба не заливать файлы, защищенные авторскими правами, а также файлы нелегального содержания!