На всех торрентах на трекере установлена скидка на скачивание в размере 100 процентов(а).
 Возможность скачивания торрента НЕ зависит от ограничений при низком ратио, низком аплоаде, требуемом ратио или требуемом аплоаде.


Начать новую тему Ответить на тему
Статистика раздачи
Размер: 1.46 ГБ | Добавлен: 31 окт 2014, 23:12 | Скачали: 0
Сидеров: 0  [0 байт/сек]    Личеров: 0  [0 байт/сек]
Пред. тема | След. тема 

Автор
Сообщение

СообщениеДобавлено: 31 окт 2014, 23:12 

Бесплатные деньги / Money for Nothing (1993) HDRip

Год выпуска: 1993
Производство: США
Жанр: Комедия, драма, криминал

Режиссер: Рамон Менендез
Актеры: Джон Кьюсак, Деби Мейзар, Майкл Мэдсен, Бенисио Дель Торо, Майкл Рапапорт, Мори Чайкин, Джеймс Гандольфини, Фионнула Флэнаган, Элизабет Бракко, Eleanor Coyle, Ленни Венито, Филип Сеймур Хоффман, Фрэнки Фэйзон

Описание фильма:
Миллион долларов на дороге не валяются. Но иногда достаточно просто оказаться в нужном месте в нужное время, чтобы сказочно разбогатеть. Безработному Джоуи выпадает один шанс из тысячи: он был рядом, когда из инкассаторской машины выпал мешок с миллионом долларов. Счастливчик сделал единственный разумный выбор — хватать и убегать. Казалось, теперь все проблемы лишены, но легкие деньги обычно связаны с большими трудностями. На Джоуи объявлена настоящая охота: искатели вознаграждения и полиция гонятся за ним по пятам. И новоиспеченный Рокфеллер очень скоро начинает понимать, как тяжело быть миллионером.

Перевод: Профессиональный двухголосый [Видеосервис]
Субтитры: Отсутствуют


Продолжительность: 01:40:12
Качество видео: HDRip

Видеокодек: XviD
Битрейт видео: ~1888 Кбит/с
Размер кадра: 704x400
Аудиокодек: AC3 2 ch
Битрейт аудио: 192 Кбит/с

Общее
Полное имя : C:\NNM\Бесплатные деньги\Denjgi darom 1993 HDRip.avi
Формат : AVI
Формат/Информация : Audio Video Interleave
Размер файла : 1,46 Гбайт
Продолжительность : 1 ч. 40 м.
Общий поток : 2089 Кбит/сек
Программа кодирования : VirtualDubMod 1.5.10.2 (build 2540/release)
Библиотека кодирования : VirtualDubMod build 2540/release

Видео
Идентификатор : 0
Формат : MPEG-4 Visual
Профиль формата : Advanced Simple@L5
Параметр BVOP формата : 1
Параметр QPel формата : Нет
Параметр GMC формата : Без точки перехода
Параметр матрицы формата : Выборочная
Идентификатор кодека : XVID
Идентификатор кодека/Подсказка : XviD
Продолжительность : 1 ч. 40 м.
Битрейт : 1888 Кбит/сек
Ширина : 704 пикселя
Высота : 400 пикселей
Соотношение сторон : 16:9
Частота кадров : 23,976 кадра/сек
Цветовое пространство : YUV
Субдискретизация насыщенности : 4:2:0
Битовая глубина : 8 бит
Тип развёртки : Прогрессивная
Метод сжатия : С потерями
Бит/(Пиксели*Кадры) : 0.280
Размер потока : 1,32 Гбайт (90%)
Библиотека кодирования : XviD 65

Аудио
Идентификатор : 1
Формат : AC-3
Формат/Информация : Audio Coding 3
Расширение режима : CM (complete main)
Идентификатор кодека : 2000
Продолжительность : 1 ч. 40 м.
Вид битрейта : Постоянный
Битрейт : 192 Кбит/сек
Каналы : 2 канала
Расположение каналов : Front: L R
Частота : 48,0 КГц
Битовая глубина : 16 бит
Метод сжатия : С потерями
Размер потока : 137 Мбайт (9%)
Выравнивание : Разделение по промежуткам
Продолжительность промежутка : 42 мс. (1,00 видеокадр)
Время предзагрузки промежутка : 500 мс.
Скриншоты:
[center]
загрузка...
Правила, инструкции, FAQ!!!
Торрент  Добавлен [31 окт 2014, 23:12] Скачать торрент
Скачать торрент
[ Размер 15.32 КБ / Просмотров 8 ]

Статус
Проверен 
 
Размер  1.46 ГБ
Приватный: Нет (DHT включён)
.torrent скачан  0
Как залить торрент? | Как скачать Torrent? | Как смотреть и слушать онлайн?  


     Отправить личное сообщение
   
Страница 1 из 1
Показать сообщения за:  Поле сортировки  
Начать новую тему Ответить на тему

   Похожие торренты   Автор   Ответы   Просмотры   Последнее сообщение 
В этой теме нет новых непрочитанных сообщений. Скачать торрент Проверен Тяжелые деньги / Трудные деньги / Hard Cash / Run for the Money (2002) WEB-DLRip

в форуме Боевики, Размер: 1.46 ГБ, Здоровье: 0%

Anonymous

0
0|0

41
0

25 сен 2014, 11:37

Anonymous Перейти к последнему сообщению

В этой теме нет новых непрочитанных сообщений. Скачать торрент Уолл Стрит: Деньги не спят / Wall Street: Money Never Sleeps (Оливер Стоун / Oliver Stone) [2010 г., мелодрама, драма, HDRip] Dub

в форуме Драмы, Мелодрамы, Размер: 1.46 ГБ, Здоровье: 0%

Anonymous

0
0|0

40
0

06 фев 2014, 11:43

Anonymous Перейти к последнему сообщению

В этой теме нет новых непрочитанных сообщений. Скачать торрент Проверен Чужие деньги / Other People's Money (1991) HDTVRip

в форуме Комедии, Размер: 1.57 ГБ, Здоровье: 100%

Гость

0
12|1

51
7

10 дек 2014, 22:56

Гость Перейти к последнему сообщению

В этой теме нет новых непрочитанных сообщений. Скачать торрент Проверен Деньги на двоих / Two for the Money (2005) BDRip 1080p

в форуме 720p | 1080p, Размер: 7.94 ГБ, Здоровье: 100%

Anonymous

0
32|3

36
309

28 сен 2014, 23:27

Anonymous Перейти к последнему сообщению

В этой теме нет новых непрочитанных сообщений. Скачать торрент Проверен The Bestseller - James Grippando / Джеймс Гриппандо - Found Money / Легкие деньги [2006, FB2/RTF/PDF, RUS]

в форуме Детективы и Боевики, Размер: 2.51 МБ, Здоровье: 0%

Anonymous

0
0|0

3
0

08 сен 2016, 20:58

Anonymous Перейти к последнему сообщению



Сейчас этот форум просматривают: нет зарегистрированных пользователей и гости: 4


Вы не можете начинать темы
Вы не можете отвечать на сообщения
Вы не можете редактировать свои сообщения
Вы не можете удалять свои сообщения
Вы не можете добавлять вложения

Перейти:  

!ВНИМАНИЕ!
 Ресурс не предоставляет электронные версии произведений, а занимается лишь коллекционированием и каталогизацией ссылок, присылаемых и публикуемых на форуме нашими читателями. Если вы являетесь правообладателем какого-либо представленного материала и не желаете чтобы ссылка на него находилась в нашем каталоге, свяжитесь с нами и мы незамедлительно удалим её. Файлы для обмена на трекере предоставлены пользователями сайта, и администрация не несёт ответственности за их содержание. Просьба не заливать файлы, защищенные авторскими правами, а также файлы нелегального содержания!