На всех торрентах на трекере установлена скидка на скачивание в размере 100 процентов(а).
 Возможность скачивания торрента НЕ зависит от ограничений при низком ратио, низком аплоаде, требуемом ратио или требуемом аплоаде.


Начать новую тему Ответить на тему
Статистика раздачи
Размер: 1.46 ГБ | Добавлен: 31 окт 2014, 20:38 | Скачали: 258
Сидеров: 145  [0 байт/сек]    Личеров: 31  [0 байт/сек]
Пред. тема | След. тема 

Автор
Сообщение

СообщениеДобавлено: 31 окт 2014, 20:38 

Название: Крысиные бега
Оригинальное название: Rat Race
Год выхода: 2001
Жанр: Комедия, приключения
Режиссёр: Джерри Цукер
В ролях: Брекин Мейер, Кьюба Гудинг мл., Сет Грин, Эми Смарт, Роуэн Аткинсон, Винс Вьелуф, Вупи Голдберг, Джон Ловиц, Уэйн Найт, Кэти Нэджими, Джон Клиз, Дэйв Томас, Ланей Чэпман, Джиллиан Мари, Броди Смит, Дженика Бергер, Кэрри Даймонд, Дуглас Хаазе, Крис Майерс, Кевин Фрэзиер, Глория Оллред, Рени Ли, Коринна Харни, Джейн С. Уолш, Эндрю Кавовит, Мэллори Сэндлер, Джерард Планкет, Мартин Эванс, Л. Харви Голд, Дэвид Лерини, Энди Мэтон, Маной Суд, Филлип Цуй, Аллан Лайселл, Пол Родригез, Маркос Менендес

О фильме:
Владелец крупнейшего казино Лас-Вегаса решает, что его самым богатым клиентам нужно нечто особенное. Он готовит для них нелегальный тотализатор - «Крысиные бега». Участники забега - обычные люди, случайно выбранные из толпы. Они получают шанс разбогатеть: кто первым доберётся из Лас-Вегаса до захолустного городка Силвер-сити, тот получит 2 млн.$, спрятанных в ячейке камеры хранения. Никто из соискателей и не догадывается, что за каждым их шагом следит хозяин казино и его клиенты, сделавшие собственные ставки на победителя...



Страна: США, Канада
Студия: Alphaville Films, Fireworks Pictures, Paramount Pictures, Zucker Productions
Продолжительность: 01:52:04
Перевод: Дублированный (Мосфильм-Мастер)
Оригинальная аудио-дорожка: Нет


Кодек: XviD
Качество: WEB-DLRip [Исходник: WEB-DL (1080p)]
Видео: XviD, 1478 Кбит/с, 720x304 (2.35:1), 23,976 кадр/с
Аудио: Русский, Dolby AC3, 48000 Гц, 384 Кбит/с, 6 каналов (5.1) - DUB, R5 [Мосфильм-Мастер]
Субтитры: Нет



General
Complete name : Rat.Race.2001.WEB-DLRip.avi
Format : AVI
Format/Info : Audio Video Interleave
File size : 1.46 GiB
Duration : 1h 52mn
Overall bit rate : 1 869 Kbps
Movie name : Крысиные бега / Rat Race (2001) WEB-DLRip
Genre : Комедия, приключения
Recorded date : 30.10.2014
Writing application : VirtualDubMod 1.5.10.3 | http://www.virtualdub-fr.org || (build 2550/release)
Writing library : VirtualDubMod build 2550/release
Copyright : rip by ivandubskoj

Video
ID : 0
Format : MPEG-4 Visual
Format profile : Advanced Simple@L5
Format settings, BVOP : 1
Format settings, QPel : No
Format settings, GMC : No warppoints
Format settings, Matrix : Custom
Codec ID : XVID
Codec ID/Hint : XviD
Duration : 1h 52mn
Bit rate : 1 478 Kbps
Width : 720 pixels
Height : 304 pixels
Display aspect ratio : 2.35:1
Frame rate : 23.976 fps
Color space : YUV
Chroma subsampling : 4:2:0
Bit depth : 8 bits
Scan type : Progressive
Compression mode : Lossy
Bits/(Pixel*Frame) : 0.282
Stream size : 1.16 GiB (79%)
Writing library : XviD 73

Audio
ID : 1
Format : AC-3
Format/Info : Audio Coding 3
Mode extension : CM (complete main)
Codec ID : 2000
Duration : 1h 52mn
Bit rate mode : Constant
Bit rate : 384 Kbps
Channel(s) : 6 channels
Channel positions : Front: L C R, Side: L R, LFE
Sampling rate : 48.0 KHz
Bit depth : 16 bits
Compression mode : Lossy
Stream size : 308 MiB (21%)
Alignment : Split accross interleaves
Interleave, duration : 64 ms (1.53 video frames)
Interleave, preload duration : 500 ms
Title : Russian, DUB [Мосфильм-Мастер]

Автор рипа - ivandubskoj
загрузка...
Правила, инструкции, FAQ!!!
Торрент  Добавлен [31 окт 2014, 20:38] Скачать торрент
Скачать торрент
[ Размер 15.24 КБ / Просмотров 4 ]

Статус
Проверен 
 
Размер  1.46 ГБ
Приватный: Нет (DHT включён)
.torrent скачан  258
Как залить торрент? | Как скачать Torrent? | Как смотреть и слушать онлайн?  


     Отправить личное сообщение
   
Страница 1 из 1
Показать сообщения за:  Поле сортировки  
Начать новую тему Ответить на тему

   Похожие торренты   Автор   Ответы   Просмотры   Последнее сообщение 
В этой теме нет новых непрочитанных сообщений. Скачать торрент Проверен Крысиные бега / Rat Race (2001) WEB-DL 1080p | D, P, A

в форуме 720p | 1080p, Размер: 5.1 ГБ, Здоровье: 100%

Anonymous

0
98|26

53
306

24 май 2015, 23:40

Anonymous Перейти к последнему сообщению

В этой теме нет новых непрочитанных сообщений. Скачать торрент Крысиные бега / Rat Race (Джерри Цукер / Jerry Zucker) [2001 г., комедия / приключения, DVDRip]

в форуме Комедии, Размер: 671.88 МБ, Здоровье: 100%

Anonymous

0
3|1

23
0

03 фев 2014, 12:33

Anonymous Перейти к последнему сообщению

В этой теме нет новых непрочитанных сообщений. Скачать торрент Проверен (Melodic Power Metal) Human Race - Дикография (2 альбома: 1998 - For the Sake of Your Soul; 2001 - Dirt Eater) - 1998-2001, MP3, 320 kbps

в форуме Heavy, Power, Progressive (Metal), Размер: 218.91 МБ, Здоровье: 0%

Anonymous

0
0|0

0
0

08 окт 2016, 18:37

Anonymous Перейти к последнему сообщению

В этой теме нет новых непрочитанных сообщений. Скачать торрент Проверен (Rock) Idle Race - The Best of Idle Race Featuring Jeff Lynne - 1990, FLAC (image+.cue) lossless

в форуме Classic Rock & Hard Rock, Размер: 424.01 МБ, Здоровье: 0%

Anonymous

0
0|0

0
0

05 сен 2016, 21:23

Anonymous Перейти к последнему сообщению

В этой теме нет новых непрочитанных сообщений. Скачать торрент Проверен (Psychedelic Rock) [CD] The Idle Race - Idle Race (1969) & Time Is (1971) (Retro Disc International Spain 2006), FLAC (image+.cue), lossless

в форуме Classic Rock & Hard Rock, Размер: 496.3 МБ, Здоровье: 0%

Anonymous

0
0|0

0
0

05 сен 2016, 21:21

Anonymous Перейти к последнему сообщению



Сейчас этот форум просматривают: нет зарегистрированных пользователей и гости: 1


Вы не можете начинать темы
Вы не можете отвечать на сообщения
Вы не можете редактировать свои сообщения
Вы не можете удалять свои сообщения
Вы не можете добавлять вложения

Перейти:  

!ВНИМАНИЕ!
 Ресурс не предоставляет электронные версии произведений, а занимается лишь коллекционированием и каталогизацией ссылок, присылаемых и публикуемых на форуме нашими читателями. Если вы являетесь правообладателем какого-либо представленного материала и не желаете чтобы ссылка на него находилась в нашем каталоге, свяжитесь с нами и мы незамедлительно удалим её. Файлы для обмена на трекере предоставлены пользователями сайта, и администрация не несёт ответственности за их содержание. Просьба не заливать файлы, защищенные авторскими правами, а также файлы нелегального содержания!