На всех торрентах на трекере установлена скидка на скачивание в размере 100 процентов(а).
 Возможность скачивания торрента НЕ зависит от ограничений при низком ратио, низком аплоаде, требуемом ратио или требуемом аплоаде.


Начать новую тему Ответить на тему
Статистика раздачи
Размер: 1.83 ГБ | Добавлен: 19 сен 2014, 19:36 | Скачали: 149
Сидеров: 71  [0 байт/сек]    Личеров: 41  [0 байт/сек]
Пред. тема | След. тема 

Автор
Сообщение

СообщениеДобавлено: 19 сен 2014, 19:36 

Название: Небритый нянь
Оригинальное название: Un homme au pair
Год выхода: 2013
Жанр: Комедия
Режиссер: Лорен Дюссо

В ролях: Антуан Дюлери, Валери Флан, Гвендолин Амон, Софи-Шарлотт Юссон, Надин Марковичи, Эстель Винсент

О фильме:
Клэр — директор кадрового агентства и мать девятилетнего ребёнка, остаётся без няни накануне важной встречи. Ей приходится смириться с самым неожиданным вариантом решения этой проблемы…



Страна: Франция
Студия: Flach Film Production
Продолжительность: 01:24:55
Перевод: Профессиональный многоголосый


Кодек: MPEG-4 AVC
Качество: HDTVRip (AVC)
Видео: 2900 Кбит/с, 1024x576, 25.000 кадр/с
Звук: Русский (АС3, 2 ch, 192 Кбит/с)

Семпл


Общее
Полное имя : Nebrityj.njan.2013.x264.HDTVRip(AVC).MediaClub.mkv
Формат : Matroska
Версия формата : Version 2
Размер файла : 1,83 Гбайт
Продолжительность : 1 ч. 24 м.
Общий поток : 3093 Кбит/сек
Название фильма : MediaClub
Дата кодирования : UTC 2014-09-19 10:24:55
Программа кодирования : mkvmerge v5.4.0 ('Piper') built on Mar 10 2012 13:34:39
Библиотека кодирования : libebml v1.2.3 + libmatroska v1.3.0

Видео
Идентификатор : 1
Формат : AVC
Формат/Информация : Advanced Video Codec
Профиль формата : High@L4.1
Параметр CABAC формата : Да
Параметр ReFrames формата : 9 кадров
Идентификатор кодека : V_MPEG4/ISO/AVC
Продолжительность : 1 ч. 24 м.
Битрейт : 2900 Кбит/сек
Ширина : 1024 пикселя
Высота : 576 пикселей
Соотношение сторон : 16:9
Режим частоты кадров : Постоянный
Частота кадров : 25,000 кадров/сек
Цветовое пространство : YUV
Субдискретизация насыщенности : 4:2:0
Битовая глубина : 8 бит
Тип развёртки : Прогрессивная
Бит/(Пиксели*Кадры) : 0.197
Размер потока : 1,68 Гбайт (92%)
Библиотека кодирования : x264 core 125 r2208 d9d2288
Настройки программы : cabac=1 / ref=9 / deblock=1:-3:-2 / analyse=0x3:0x133 / me=umh / subme=10 / psy=1 / psy_rd=1.00:0.20 / mixed_ref=1 / me_range=48 / chroma_me=1 / trellis=2 / 8x8dct=1 / cqm=0 / deadzone=21,11 / fast_pskip=0 / chroma_qp_offset=-3 / threads=6 / lookahead_threads=1 / sliced_threads=0 / nr=0 / decimate=0 / interlaced=0 / bluray_compat=0 / constrained_intra=0 / bframes=8 / b_pyramid=2 / b_adapt=2 / b_bias=0 / direct=3 / weightb=1 / open_gop=0 / weightp=2 / keyint=250 / keyint_min=25 / scenecut=40 / intra_refresh=0 / rc=2pass / mbtree=0 / bitrate=2900 / ratetol=1.0 / qcomp=0.60 / qpmin=0 / qpmax=69 / qpstep=4 / cplxblur=20.0 / qblur=0.5 / ip_ratio=1.40 / pb_ratio=1.30 / aq=1:1.00
Default : Да
Forced : Нет

Аудио
Идентификатор : 2
Формат : AC-3
Формат/Информация : Audio Coding 3
Расширение режима : CM (complete main)
Параметр Endianness формата : Big
Идентификатор кодека : A_AC3
Продолжительность : 1 ч. 24 м.
Вид битрейта : Постоянный
Битрейт : 192 Кбит/сек
Каналы : 2 канала
Расположение каналов : Front: L R
Частота : 48,0 КГц
Битовая глубина : 16 бит
Метод сжатия : С потерями
Размер потока : 117 Мбайт (6%)
Язык : Russian
Default : Да
Forced : Нет


Релиз от:
загрузка...
Правила, инструкции, FAQ!!!
Торрент  Добавлен [19 сен 2014, 19:36] Скачать торрент
Скачать торрент
[ Размер 18.94 КБ / Просмотров 7 ]

Статус
Проверен 
 
Размер  1.83 ГБ
Приватный: Нет (DHT включён)
.torrent скачан  149
Как залить торрент? | Как скачать Torrent? | Как смотреть и слушать онлайн?  


     Отправить личное сообщение
   
Страница 1 из 1
Показать сообщения за:  Поле сортировки  
Начать новую тему Ответить на тему

   Похожие торренты   Автор   Ответы   Просмотры   Последнее сообщение 
В этой теме нет новых непрочитанных сообщений. Скачать торрент Проверен (Glam Metal) Pair A Dice - Pair A Dice - 1989 (Reissue 2008), MP3, 192 kbps

в форуме Classic Rock & Hard Rock, Размер: 39.05 МБ, Здоровье: 0%

Anonymous

0
0|0

0
0

13 ноя 2016, 18:39

Anonymous Перейти к последнему сообщению

В этой теме нет новых непрочитанных сообщений. Скачать торрент Проверен Усатый нянь (Владимир Грамматиков) [1977 г., комедия, DVDRip]

в форуме Детское, Семейное кино, Размер: 701.56 МБ, Здоровье: 100%

Гость

0
25|8

9
0

11 апр 2016, 23:35

Гость Перейти к последнему сообщению

В этой теме нет новых непрочитанных сообщений. Скачать торрент Проверен (Шансон)Кузинер Эдуард - "Хмырь небритый" - 1988 г, MP3 (tracks), 192 kbps

в форуме Шансон|Авторская песня, Размер: 63.84 МБ, Здоровье: 100%

Anonymous

0
5|2

0
0

05 ноя 2016, 21:14

Anonymous Перейти к последнему сообщению

В этой теме нет новых непрочитанных сообщений. Скачать торрент Проверен (Шансон) Игорь Запольский (Иванов-Запольский) - Небритый, полупьяный - 1995, FLAC (image+.cue), lossless

в форуме Шансон|Авторская песня, Размер: 292.98 МБ, Здоровье: 100%

Anonymous

0
1|0

38
1

28 сен 2014, 21:35

Anonymous Перейти к последнему сообщению

В этой теме нет новых непрочитанных сообщений. Скачать торрент Проверен (Rock) [LP] [24/192] Pink Floyd - A Nice Pair - 1973, FLAC (image+.cue)

в форуме Зарубежный рок (оцифровки), Размер: 2.95 ГБ, Здоровье: 100%

Anonymous

0
9|3

2
0

25 авг 2016, 21:41

Anonymous Перейти к последнему сообщению



Сейчас этот форум просматривают: нет зарегистрированных пользователей и гости: 2


Вы не можете начинать темы
Вы не можете отвечать на сообщения
Вы не можете редактировать свои сообщения
Вы не можете удалять свои сообщения
Вы не можете добавлять вложения

Перейти:  

!ВНИМАНИЕ!
 Ресурс не предоставляет электронные версии произведений, а занимается лишь коллекционированием и каталогизацией ссылок, присылаемых и публикуемых на форуме нашими читателями. Если вы являетесь правообладателем какого-либо представленного материала и не желаете чтобы ссылка на него находилась в нашем каталоге, свяжитесь с нами и мы незамедлительно удалим её. Файлы для обмена на трекере предоставлены пользователями сайта, и администрация не несёт ответственности за их содержание. Просьба не заливать файлы, защищенные авторскими правами, а также файлы нелегального содержания!