На всех торрентах на трекере установлена скидка на скачивание в размере 100 процентов(а).
 Возможность скачивания торрента НЕ зависит от ограничений при низком ратио, низком аплоаде, требуемом ратио или требуемом аплоаде.


Начать новую тему Ответить на тему
Статистика раздачи
Размер: 1.35 ГБ | Добавлен: 06 сен 2014, 09:04 | Скачали: 0
Сидеров: 284  [0 байт/сек]    Личеров: 71  [0 байт/сек]
Пред. тема | След. тема 

Автор
Сообщение

СообщениеДобавлено: 06 сен 2014, 09:04 

Год выпуска: 2014
Производство: США / Starstream Entertainment, Abbolita Productions
Жанр: Комедия, Криминал
Перевод: Многоголосый закадровый, любительский [Paradox]
Субтитры: Отсутствуют

Режиссер: Дэвид Мишо
Продюсер: Ашок Амритрадж, Элизабет Дестро, Эллен Голдсмит-Вейн
Актеры: Дженнифер Энистон, Мос Деф, Айла Фишер, Уилл Форте, Марк Бун Джуниор, Тим Роббинс, Джон Хоукс, Клеа Льюис, Чарли Тахэн, Кевин Корригэн

Описание фильма:
Орделл Робб и Луис Гарра познакомились за решеткой, сев за одинаковые преступления — угон. Теперь они на свободе и готовят крупное дело: похищение жены детройтского девелопера с целью получения выкупа. Но им и в голову не могло прийти, что бедный, как церковная мышь, супруг не захочет вызволять благоверную. И тогда наступает время для запасного плана: настоящего убийства не без помощи жаждущей мести домохозяйки.



Дата мировой премьеры: 14 сентября 2013
Дата российской премьеры: 16 октября 2014, «Централ Партнершип»

Продолжительность: 01:40:49
Качество видео: WEB-DLRip

Видеокодек: Xvid
Битрейт видео: ~1649 kb/s
Размер кадра: 720х304
Аудиокодек: AC3 2.0
Битрейт аудио: 256 kb/s
Сэмпл: Скачать
Код:
Код:
  Общее
Полное имя                               :Urkadi.mou.jeny.2014.L.WEB-DLRip.1400MB.nnm-club.avi
Формат                                   : AVI
Формат/Информация                        : Audio Video Interleave
Размер файла                             : 1,35 Гбайт
Продолжительность                        : 1 ч. 40 м.
Общий поток                              : 1915 Кбит/сек
Программа кодирования                    : VirtualDubMod 1.5.10.2 (build 2540/release)
Библиотека кодирования                   : VirtualDubMod build 2540/release

Видео
Идентификатор                            : 0
Формат                                   : MPEG-4 Visual
Профиль формата                          : Advanced Simple@L5
Параметр BVOP формата                    : 2
Параметр QPel формата                    : Нет
Параметр GMC формата                     : Без точки перехода
Параметр матрицы формата                 : Default (MPEG)
Идентификатор кодека                     : XVID
Идентификатор кодека/Подсказка           : XviD
Продолжительность                        : 1 ч. 40 м.
Битрейт                                  : 1649 Кбит/сек
Ширина                                   : 720 пикселей
Высота                                   : 304 пикселя
Соотношение сторон                       : 2,35:1
Частота кадров                           : 23,976 кадра/сек
Цветовое пространство                    : YUV
Субдискретизация насыщенности            : 4:2:0
Битовая глубина                          : 8 бит
Тип развёртки                            : Прогрессивная
Метод сжатия                             : С потерями
Бит/(Пиксели*Кадры)                      : 0.314
Размер потока                            : 1,16 Гбайт (86%)
Библиотека кодирования                   : XviD 1.2.1 (UTC 2008-12-04)

Аудио
Идентификатор                            : 1
Формат                                   : AC-3
Формат/Информация                        : Audio Coding 3
Расширение режима                        : CM (complete main)
Параметр Endianness формата              : Big
Идентификатор кодека                     : 2000
Продолжительность                        : 1 ч. 40 м.
Вид битрейта                             : Постоянный
Битрейт                                  : 256 Кбит/сек
Каналы                                   : 2 канала
Расположение каналов                     : Front: L R
Частота                                  : 48,0 КГц
Битовая глубина                          : 16 бит
Метод сжатия                             : С потерями
Размер потока                            : 185 Мбайт (13%)
Выравнивание                             : Разделение по промежуткам
Продолжительность промежутка             : 42  мс. (1,00 видеокадр)
Время предзагрузки промежутка            : 500  мс.

Скриншоты:

загрузка...
Правила, инструкции, FAQ!!!
Торрент  Добавлен [06 сен 2014, 09:04] Скачать торрент
Скачать торрент
[ Размер 14.31 КБ / Просмотров 14 ]

Статус
Проверен 
 
Размер  1.35 ГБ
Приватный: Нет (DHT включён)
.torrent скачан  0
Как залить торрент? | Как скачать Torrent? | Как смотреть и слушать онлайн?  


     Отправить личное сообщение
   
Страница 1 из 1
Показать сообщения за:  Поле сортировки  
Начать новую тему Ответить на тему

   Похожие торренты   Автор   Ответы   Просмотры   Последнее сообщение 
В этой теме нет новых непрочитанных сообщений. Скачать торрент Проверен Убьём жену Уорда / Let's Kill Ward's Wife (2014) WEB-DLRip | L1

в форуме Комедии, Размер: 1.37 ГБ, Здоровье: 94%

Гость

0
498|526

92
222

02 янв 2015, 21:34

Гость Перейти к последнему сообщению

В этой теме нет новых непрочитанных сообщений. Скачать торрент Проверен Прослушка / The Wire [S01-05] (2002-2008) WEB-DLRip | Fox Crime

в форуме Зарубежные сериалы, Размер: 39.53 ГБ, Здоровье: 28%

Anonymous

0
65|229

311
101

20 июн 2015, 18:08

Anonymous Перейти к последнему сообщению

В этой теме нет новых непрочитанных сообщений. Скачать торрент Проверен Если твоя девушка – зомби / Life After Beth (2014) WEB-DLRip | D

в форуме Ужасы, Размер: 1.37 ГБ, Здоровье: 100%

Anonymous

0
814|582

248
976

02 окт 2014, 16:51

Anonymous Перейти к последнему сообщению

В этой теме нет новых непрочитанных сообщений. Скачать торрент Проверен Ищу жену с ребёнком [01-04 из 04] (2014) SATRip

в форуме Отечественные сериалы, Размер: 2.15 ГБ, Здоровье: 100%

Anonymous

0
415|22

89
8856

26 авг 2014, 11:29

Anonymous Перейти к последнему сообщению

В этой теме нет новых непрочитанных сообщений. Скачать торрент Проверен Убьём жену Уорда / Let's Kill Ward's Wife (2014) WEB-DL 720p | L1

в форуме 720p | 1080p, Размер: 2.63 ГБ, Здоровье: 100%

Гость

0
2106|243

67
3910

02 янв 2015, 21:31

Гость Перейти к последнему сообщению



Сейчас этот форум просматривают: нет зарегистрированных пользователей и гости: 1


Вы не можете начинать темы
Вы не можете отвечать на сообщения
Вы не можете редактировать свои сообщения
Вы не можете удалять свои сообщения
Вы не можете добавлять вложения

Перейти:  

!ВНИМАНИЕ!
 Ресурс не предоставляет электронные версии произведений, а занимается лишь коллекционированием и каталогизацией ссылок, присылаемых и публикуемых на форуме нашими читателями. Если вы являетесь правообладателем какого-либо представленного материала и не желаете чтобы ссылка на него находилась в нашем каталоге, свяжитесь с нами и мы незамедлительно удалим её. Файлы для обмена на трекере предоставлены пользователями сайта, и администрация не несёт ответственности за их содержание. Просьба не заливать файлы, защищенные авторскими правами, а также файлы нелегального содержания!