На всех торрентах на трекере установлена скидка на скачивание в размере 100 процентов(а).
 Возможность скачивания торрента НЕ зависит от ограничений при низком ратио, низком аплоаде, требуемом ратио или требуемом аплоаде.


Начать новую тему Ответить на тему
Статистика раздачи
Размер: 825.83 МБ | Добавлен: 03 мар 2013, 23:15 | Скачали: 1
Сидеров: 0  [0 байт/сек]    Личеров: 0  [0 байт/сек]
Пред. тема | След. тема 

Автор
Сообщение

СообщениеДобавлено: 03 мар 2013, 23:15 

Страна: США
Жанр: комедия
Год выпуска: 1996
Продолжительность: 01:28:54
Перевод:
    Авторский (одноголосый закадровый) - Павел Санаев
  • Профессиональный (многоголосый закадровый) - №3
Cубтитры: нет
Оригинальная аудиодорожка: нет
Режиссер: Дэвид С. Уорд / David S. Ward

В фильме снимались:
Келси Грэммер
Лорен Холли
Роб Шнайдер
Гарри Дин Стэнтон
Брюс Дерн
Уильям Х. Мэйси
Кен Хадсон Кэмпбелл
Тоби Хасс
Дуэйн Мартин
Джонатан Пеннер

Вкратце:
Вместо долгожданной атомной подводной лодки капитан Том Додж получает в свое распоряжение допотопную дизельную развалину. Судя по внешнему виду, единственное, на что она способна — это последнее и очень быстрое погружение. Однако его это не смущает, ведь он самый веселый и бесшабашный капитан флота США, настоящий морской волк с татуировкой на интимном месте.
Под стать ему подобрался и экипаж. Более эксцентричных и нелепых матросов в природе не существует. А когда в качестве эксперимента на лодку назначается женщина-офицер, и без того неспокойные моряки просто сходят с ума…



Качество видео: HDTVRip
Формат видео: AVI
Видео: 656x352 (1.86:1), 25 fps, XviD build 65 ~1032 kbps avg, 0.18 bit/pixel
Аудио 1: 48 kHz, MPEG Layer 3, 2 ch, ~128.00 kbps avg - Санаев
Аудио 2: 48 kHz, MPEG Layer 3, 2 ch, ~128.00 kbps avg - MVO - отдельно
MediaInfo
Общее
Полное имя : D:\Torrent\Убрать перископ\Убрать перископ_745\Убрать перископ_745\Убрать перископ_745.avi
Формат : AVI
Формат/Информация : Audio Video Interleave
Размер файла : 744 Мбайт
Продолжительность : 1 ч. 28 м.
Общий поток : 1171 Кбит/сек
Программа кодирования : VirtualDubModRus 1.5.10.2 (build 2540/release)
Библиотека кодирования : VirtualDubMod build 2540/release[br][/br]Видео
Идентификатор : 0
Формат : MPEG-4 Visual
Профиль формата : Advanced Simple@L5
Параметр BVOP формата : 1
Параметр QPel формата : Нет
Параметр GMC формата : Без точки перехода
Параметр матрицы формата : Выборочная
Идентификатор кодека : XVID
Идентификатор кодека/Подсказка : XviD
Продолжительность : 1 ч. 28 м.
Битрейт : 1033 Кбит/сек
Ширина : 656 пикселей
Высота : 352 пикселя
Соотношение сторон : 1,85:1
Частота кадров : 25,000 кадров/сек
Цветовое пространство : YUV
Субдискретизация насыщенности : 4:2:0
Битовая глубина : 8 бит
Тип развёртки : Прогрессивная
Метод сжатия : С потерями
Бит/(Пиксели*Кадры) : 0.179
Размер потока : 657 Мбайт (88%)
Библиотека кодирования : XviD 65[br][/br]Аудио
Идентификатор : 1
Формат : MPEG Audio
Версия формата : Version 1
Профиль формата : Layer 3
Режим : Joint stereo
Расширение режима : MS Stereo
Идентификатор кодека : 55
Идентификатор кодека/Подсказка : MP3
Продолжительность : 1 ч. 28 м.
Вид битрейта : Постоянный
Битрейт : 128 Кбит/сек
Каналы : 2 канала
Частота : 48,0 КГц
Метод сжатия : С потерями
Размер потока : 81,4 Мбайт (11%)
Выравнивание : Разделение по промежуткам
Продолжительность промежутка : 40 мс. (1,00 видеокадр)
Время предзагрузки промежутка : 500 мс.[br][/br]Общее
Полное имя : D:\Torrent\Убрать перископ\Убрать перископ_745\Убрать перископ_745\Убрать перископ_745_MVO_3.mp3
Формат : MPEG Audio
Размер файла : 81,4 Мбайт
Продолжительность : 1 ч. 28 м.
Режим общего битрейта : Постоянный
Общий поток : 128 Кбит/сек[br][/br]Аудио
Формат : MPEG Audio
Версия формата : Version 1
Профиль формата : Layer 3
Режим : Joint stereo
Расширение режима : MS Stereo
Продолжительность : 1 ч. 28 м.
Вид битрейта : Постоянный
Битрейт : 128 Кбит/сек
Каналы : 2 канала
Частота : 48,0 КГц
Метод сжатия : С потерями
Размер потока : 81,4 Мбайт (100%)


загрузка...
Правила, инструкции, FAQ!!!
Торрент  Добавлен [03 мар 2013, 23:15] Скачать торрент
Скачать торрент
[ Размер 16.75 КБ / Просмотров 8 ]

Статус  
 
Размер  825.83 МБ
Приватный: Нет (DHT включён)
.torrent скачан  1
Как залить торрент? | Как скачать Torrent? | Как смотреть и слушать онлайн?  


     Отправить личное сообщение
   
Страница 1 из 1
Показать сообщения за:  Поле сортировки  
Начать новую тему Ответить на тему

   Похожие торренты   Автор   Ответы   Просмотры   Последнее сообщение 
В этой теме нет новых непрочитанных сообщений. Скачать торрент Проверен Убрать перископ / Down Periscope (1996) HDTVRip [576p] iPad

в форуме Фильмы для iPod, iPhone, iPad, Размер: 1.54 ГБ, Здоровье: 100%

Anonymous

0
18|3

28
1

13 сен 2015, 01:08

Anonymous Перейти к последнему сообщению

В этой теме нет новых непрочитанных сообщений. Скачать торрент Проверен Убрать перископ (Down Periscope) (1996) [MP4|352х192] <DVDRip>

в форуме Видео для смартфонов и КПК, Размер: 344.31 МБ, Здоровье: 100%

Anonymous

0
1|1

108
0

25 окт 2014, 23:11

Anonymous Перейти к последнему сообщению

В этой теме нет новых непрочитанных сообщений. Скачать торрент Буги-вуги / Boogie Woogie (Дункан Уорд / Duncan Ward) [2009, Великобритания, Драма, Мелодрама, Комедия, HDRip] MVO

в форуме Драмы, Мелодрамы, Размер: 1.37 ГБ, Здоровье: 0%

Anonymous

0
0|0

56
0

07 фев 2014, 11:39

Anonymous Перейти к последнему сообщению

В этой теме нет новых непрочитанных сообщений. Скачать торрент Сердцеедки / Heartbreakers (Дэвид Миркин / David Mirkin) [2001 г., Комедия, HDTVRip]

в форуме Комедии, Размер: 1.45 ГБ, Здоровье: 100%

Anonymous

0
34|11

37
0

26 апр 2014, 20:56

Anonymous Перейти к последнему сообщению

В этой теме нет новых непрочитанных сообщений. Скачать торрент Жилец / The Lodger (Дэвид Ондаатже / David Ondaatje) [2009 г., Триллер, HDTVRip]

в форуме Триллеры, Размер: 1.46 ГБ, Здоровье: ???%

Anonymous

0
0|1

37
0

19 фев 2014, 09:53

Anonymous Перейти к последнему сообщению



Сейчас этот форум просматривают: нет зарегистрированных пользователей и гости: 1


Вы не можете начинать темы
Вы не можете отвечать на сообщения
Вы не можете редактировать свои сообщения
Вы не можете удалять свои сообщения
Вы не можете добавлять вложения

Перейти:  

!ВНИМАНИЕ!
 Ресурс не предоставляет электронные версии произведений, а занимается лишь коллекционированием и каталогизацией ссылок, присылаемых и публикуемых на форуме нашими читателями. Если вы являетесь правообладателем какого-либо представленного материала и не желаете чтобы ссылка на него находилась в нашем каталоге, свяжитесь с нами и мы незамедлительно удалим её. Файлы для обмена на трекере предоставлены пользователями сайта, и администрация не несёт ответственности за их содержание. Просьба не заливать файлы, защищенные авторскими правами, а также файлы нелегального содержания!