На всех торрентах на трекере установлена скидка на скачивание в размере 100 процентов(а).
 Возможность скачивания торрента НЕ зависит от ограничений при низком ратио, низком аплоаде, требуемом ратио или требуемом аплоаде.


Начать новую тему Ответить на тему
Статистика раздачи
Размер: 2.18 ГБ | Добавлен: 28 фев 2013, 12:54 | Скачали: 0
Сидеров: 35  [0 байт/сек]    Личеров: 11  [0 байт/сек]
Пред. тема | След. тема 

Автор
Сообщение

СообщениеДобавлено: 28 фев 2013, 12:54 

Несносные боссы / Horrible Bosses / EXTENDED CUT
[center]

Страна: США
Жанр: комедия, криминал
Год выпуска: 2011
Продолжительность: 01:45:36

Перевод: Профессиональный (дублированный) | Лицензия
Cубтитры Русские (форсированные + полные), английские
Оригинальная аудиодорожка: Английский


Режиссер: Сет Гордон / Seth Gordon
В ролях: Джейсон Бейтман / Jason Bateman, Чарли Дэй / Charlie Day, Джейсон Судейкис / Jason Sudeikis, Дженнифер Энистон / Jennifer Aniston, Колин Фаррелл / Colin Farrell, Кевин Спейси / Kevin Spacey, Джейми Фокс / Jamie Foxx, П.Дж. Бирн / P.J. Byrne, Стив Виб / Steve Wiebe, Линдсэй Слоун / Lindsay Sloane
[center][i]

Вкратце:
Фильм повествует о трех друзьях, которые разочаровались в своей работе и пришли к выводу, что им следует убить боссов друг друга.

Примечание: EXTENDED-версия не выходила в дубляже. Есть места без перевода! Эти места переведены субтитрами


Качество видео: BDRip-AVC | исх. Horrible Bosses 2011 BluRay 1080p AVC DTS-HD MA5.1-CHDBits
Формат видео: MKV

Видео: H.264 / 1056 x 440 / 2.40:1 / 2190 kbps / 23,976 fps
Аудио 1: Русский / AC3 Dolby Digital / 48 KHz / 384 kbps / 3/2 (L,C,R,l,r) + LFE ch
Аудио 2: Английский / AC3 Dolby Digital / 48 KHz / 384 kbps / 3/2 (L,C,R,l,r) + LFE ch
Формат субтитров: softsub (SRT)


MediaInfo/log
log
Код:
Код:
avs [info]: 1056x440p 1:1 @ 24000/1001 fps (cfr)
x264 [info]: using SAR=1/1
x264 [info]: using cpu capabilities: MMX2 SSE2Fast SSSE3 FastShuffle SSE4.2 AVX
x264 [info]: profile High, level 4.1[br][/br]x264 [info]: frame I:1589  Avg QP:17.58  size: 66340
x264 [info]: frame P:29290 Avg QP:19.59  size: 26634
x264 [info]: frame B:121042 Avg QP:22.02  size:  7013
x264 [info]: consecutive B-frames:  1.6%  1.1%  3.9% 14.0% 20.0% 44.9%  6.9%  4.3%  1.8%  0.5%  0.6%  0.4%
x264 [info]: mb I  I16..4:  8.7% 72.0% 19.4%
x264 [info]: mb P  I16..4:  0.6%  5.8%  1.0%  P16..4: 39.2% 29.1% 18.7%  0.0%  0.0%    skip: 5.7%
x264 [info]: mb B  I16..4:  0.0%  0.4%  0.1%  B16..8: 39.2% 10.6%  3.4%  direct: 4.8%  skip:41.6%  L0:44.8% L1:45.0% BI:10.1%
x264 [info]: 8x8 transform intra:76.2% inter:60.0%
x264 [info]: direct mvs  spatial:98.0% temporal:2.0%
x264 [info]: coded y,uvDC,uvAC intra: 90.9% 84.1% 64.8% inter: 26.1% 20.5% 8.7%
x264 [info]: i16 v,h,dc,p: 37% 19% 10% 34%
x264 [info]: i8 v,h,dc,ddl,ddr,vr,hd,vl,hu: 15%  9%  5% 10% 14% 14% 12% 11% 11%
x264 [info]: i4 v,h,dc,ddl,ddr,vr,hd,vl,hu: 14% 10%  3%  9% 14% 14% 13% 11% 11%
x264 [info]: i8c dc,h,v,p: 41% 22% 21% 16%
x264 [info]: Weighted P-Frames: Y:2.1% UV:0.5%
x264 [info]: ref P L0: 40.6%  9.1% 20.2%  6.6%  6.6%  4.0%  4.4%  1.9%  2.1%  1.5%  1.6%  1.3%  0.1%  0.0%
x264 [info]: ref B L0: 66.2% 14.1%  6.7%  3.7%  2.5%  2.3%  1.8%  1.2%  0.9%  0.6%  0.2%
x264 [info]: ref B L1: 91.6%  8.4%
x264 [info]: kb/s:2189.72

General
Unique ID : 249335544068841869570635927517006259846 (0xBB94476FF77B0B43B493A4A60CD5E686)
Complete name : I:\Other\Nesnosnye.Bossy.2011.Extended.Cut.DUAL.BDRip-AVC.AC3.-HQ-ViDEO.mkv
Format : Matroska
Format version : Version 2
File size : 2.18 GiB
Duration : 1h 45mn
Overall bit rate : 2 960 Kbps
Movie name : Nesnosnye Bossy / 2011 / Extended Cut / Release by Vaippp / HQ-ViDEO
Encoded date : UTC 2011-10-24 04:47:01
Writing application : mkvmerge v5.0.1 ('Es ist Sommer') built on Oct 9 2011 11:55:43
Writing library : libebml v1.2.2 + libmatroska v1.3.0[br][/br]Video
ID : 1
Format : AVC
Format/Info : Advanced Video Codec
Format profile : High@L4.1
Format settings, CABAC : Yes
Format settings, ReFrames : 12 frames
Codec ID : V_MPEG4/ISO/AVC
Duration : 1h 45mn
Bit rate : 2 190 Kbps
Width : 1 056 pixels
Height : 440 pixels
Display aspect ratio : 2.40:1
Frame rate : 23.976 fps
Color space : YUV
Chroma subsampling : 4:2:0
Bit depth : 8 bits
Scan type : Progressive
Bits/(Pixel*Frame) : 0.197
Stream size : 1.57 GiB (72%)
Title : BDRip 24/10/2011
Writing library : x264 core 118 r2085 8a62835
Encoding settings : cabac=1 / ref=12 / deblock=1:-2:-2 / analyse=0x3:0x113 / me=umh / subme=10 / psy=1 / psy_rd=0.95:0.00 / mixed_ref=1 / me_range=48 / chroma_me=1 / trellis=2 / 8x8dct=1 / cqm=0 / deadzone=21,11 / fast_pskip=0 / chroma_qp_offset=-2 / threads=12 / sliced_threads=0 / nr=0 / decimate=0 / interlaced=0 / bluray_compat=0 / constrained_intra=0 / bframes=11 / b_pyramid=2 / b_adapt=2 / b_bias=0 / direct=3 / weightb=1 / open_gop=0 / weightp=2 / keyint=250 / keyint_min=23 / scenecut=40 / intra_refresh=0 / rc_lookahead=60 / rc=2pass / mbtree=1 / bitrate=2190 / ratetol=1.0 / qcomp=0.65 / qpmin=0 / qpmax=69 / qpstep=4 / cplxblur=20.0 / qblur=0.5 / vbv_maxrate=40000 / vbv_bufsize=30000 / nal_hrd=none / ip_ratio=1.40 / aq=2:0.90
Language : English
Matrix coefficients : BT.709-5, BT.1361, IEC 61966-2-4 709, SMPTE RP177[br][/br]Audio #1
ID : 2
Format : AC-3
Format/Info : Audio Coding 3
Mode extension : CM (complete main)
Codec ID : A_AC3
Duration : 1h 45mn
Bit rate mode : Constant
Bit rate : 384 Kbps
Channel(s) : 6 channels
Channel positions : Front: L C R, Side: L R, LFE
Sampling rate : 48.0 KHz
Bit depth : 16 bits
Compression mode : Lossy
Stream size : 290 MiB (13%)
Title : DUB @ R5
Language : Russian[br][/br]Audio #2
ID : 3
Format : AC-3
Format/Info : Audio Coding 3
Mode extension : CM (complete main)
Codec ID : A_AC3
Duration : 1h 45mn
Bit rate mode : Constant
Bit rate : 384 Kbps
Channel(s) : 6 channels
Channel positions : Front: L C R, Side: L R, LFE
Sampling rate : 48.0 KHz
Bit depth : 16 bits
Compression mode : Lossy
Stream size : 290 MiB (13%)
Title : ORG
Language : English[br][/br]Text #1
ID : 4
Format : UTF-8
Codec ID : S_TEXT/UTF8
Codec ID/Info : UTF-8 Plain Text
Title : Forced
Language : Russian[br][/br]Text #2
ID : 5
Format : UTF-8
Codec ID : S_TEXT/UTF8
Codec ID/Info : UTF-8 Plain Text
Title : Full @ Goblin
Language : Russian[br][/br]Text #3
ID : 6
Format : UTF-8
Codec ID : S_TEXT/UTF8
Codec ID/Info : UTF-8 Plain Text
Language : English[br][/br]Menu
00:00:00.000 : en:00:00:00.000
00:09:34.365 : en:00:09:34.365
00:22:16.585 : en:00:22:16.585
00:32:49.676 : en:00:32:49.676
00:43:14.300 : en:00:43:14.300
00:55:56.311 : en:00:55:56.311
01:04:05.508 : en:01:04:05.508
01:14:31.509 : en:01:14:31.509
01:25:23.994 : en:01:25:23.994
01:35:42.320 : en:01:35:42.320




загрузка...
Правила, инструкции, FAQ!!!
Торрент  Добавлен [28 фев 2013, 12:54] Скачать торрент
Скачать торрент
[ Размер 11.5 КБ / Просмотров 12 ]

Статус  
 
Размер  2.18 ГБ
Приватный: Нет (DHT включён)
.torrent скачан  0
Как залить торрент? | Как скачать Torrent? | Как смотреть и слушать онлайн?  


     Отправить личное сообщение
   
Страница 1 из 1
Показать сообщения за:  Поле сортировки  
Начать новую тему Ответить на тему

   Похожие торренты   Автор   Ответы   Просмотры   Последнее сообщение 
В этой теме нет новых непрочитанных сообщений. Скачать торрент Проверен [iPad] Несносные боссы / Horrible Bosses (Сет Гордон / Seth Gordon ) [2011, США, Комедия, криминал, BDRip, SD (576p)] [Theatrical version] DUB + Original + sub (rus, eng)

в форуме Фильмы для iPod, iPhone, iPad, Размер: 1.67 ГБ, Здоровье: 100%

Гость

0
56|19

24
0

12 май 2015, 00:07

Гость Перейти к последнему сообщению

В этой теме нет новых непрочитанных сообщений. Скачать торрент Проверен [iPad] Несносные боссы 2 / Horrible Bosses 2 (Шон Андерс / Sean Anders ) [2014, США, Комедия, WEB-DLRip, SD (576p)] DUB + Original

в форуме Фильмы для iPod, iPhone, iPad, Размер: 1.9 ГБ, Здоровье: 100%

Гость

0
57|19

21
1

11 май 2015, 01:39

Гость Перейти к последнему сообщению

В этой теме нет новых непрочитанных сообщений. Скачать торрент Проверен Несносные боссы / Horrible Bosses (2011) BDRip | Лицензия

в форуме Комедии, Размер: 1.45 ГБ, Здоровье: 100%

Гость

0
381|8

59
86

04 дек 2014, 17:28

Гость Перейти к последнему сообщению

В этой теме нет новых непрочитанных сообщений. Скачать торрент Проверен Несносные боссы / Horrible Bosses (2011) BDRip 720p | Театральная версия

в форуме 720p | 1080p, Размер: 3.38 ГБ, Здоровье: 100%

Гость

0
454|38

21
351

04 дек 2014, 17:32

Гость Перейти к последнему сообщению

В этой теме нет новых непрочитанных сообщений. Скачать торрент Проверен Несносные боссы / Horrible Bosses (2011) BDRip 1080p | Театральная версия

в форуме 720p | 1080p, Размер: 7.74 ГБ, Здоровье: 100%

Anonymous

0
173|15

19
118

04 дек 2014, 17:34

Anonymous Перейти к последнему сообщению



Сейчас этот форум просматривают: нет зарегистрированных пользователей и гости: 1


Вы не можете начинать темы
Вы не можете отвечать на сообщения
Вы не можете редактировать свои сообщения
Вы не можете удалять свои сообщения
Вы не можете добавлять вложения

Перейти:  

!ВНИМАНИЕ!
 Ресурс не предоставляет электронные версии произведений, а занимается лишь коллекционированием и каталогизацией ссылок, присылаемых и публикуемых на форуме нашими читателями. Если вы являетесь правообладателем какого-либо представленного материала и не желаете чтобы ссылка на него находилась в нашем каталоге, свяжитесь с нами и мы незамедлительно удалим её. Файлы для обмена на трекере предоставлены пользователями сайта, и администрация не несёт ответственности за их содержание. Просьба не заливать файлы, защищенные авторскими правами, а также файлы нелегального содержания!