На всех торрентах на трекере установлена скидка на скачивание в размере 100 процентов(а).
 Возможность скачивания торрента НЕ зависит от ограничений при низком ратио, низком аплоаде, требуемом ратио или требуемом аплоаде.


Начать новую тему Ответить на тему
Статистика раздачи
Размер: 1.46 ГБ | Добавлен: 28 фев 2013, 12:51 | Скачали: 0
Сидеров: 0  [0 байт/сек]    Личеров: 0  [0 байт/сек]
Пред. тема | След. тема 

Автор
Сообщение

СообщениеДобавлено: 28 фев 2013, 12:51 

Короли рулетки / The Pelayos



Страна: Испания / Afrodita Audiovisual, A.I.E., Alea Docs & Films, Bausan Films
Жанр: комедия, боевик, драма
Год выпуска: 2012
Продолжительность: 01:37:12
Перевод: Профессиональный (многоголосый закадровый) Лицензия
Cубтитры: нет
Режиссер: Eduard Cortés / Эдуард Кортес

В фильме снимались: Даниэль Брюль, Соня Касадемонт, Чи Чуй, Эдуард Фернандес, Льюис Омар, Ферран Лаоз, Рачель Ласкар, Мика Луна, Винсент Ромеро, Марина Салас[br][/br]Описание: Авантюрная история, снятая по мотивам реальных событий, рассказывает о клане Пелайо. Члены этой Семьи — большие мастера рулетки и карт честным путем обыгрывали казино по всему миру. Благодаря своим незаурядным талантам, они заработали много денег и даже «увековечились» в названии школы покера.



Качество видео: HDRip [720p.BluRay.x264.DTS-KeN]
Формат видео: AVI
Видео: MPEG-4 Visual at 1750 Кбит/сек Aspect : 720 x 304 (2.368) at 25.000 fps
Аудио: AC-3 at 384 Кбит/сек Infos : 6 каналов, 48,0 КГц

MediaInfo
Общее
Полное имя : C:\Users\\Videos\Koroli.ruletki.2012.P.HDRip.IRONCLUB.avi
Формат : AVI
Формат/Информация : Audio Video Interleave
Размер файла : 1,46 Гбайт
Продолжительность : 1 ч. 37 м.
Общий поток : 2144 Кбит/сек
Название фильма : Koroli.ruletki.2012.P.HDRip.IRONCLUB
Режиссёр : IRONCLUB
Жанр : Action | Drama
Программа кодирования : VirtualDubMod 1.5.10.2 (build 2540/release)
Формат оригинала/Имя : Movie
Правообладатель :[br][/br]Видео
Идентификатор : 0
Формат : MPEG-4 Visual
Профиль формата : Advanced Simple@L5
Параметр BVOP формата : 2
Параметр QPel формата : Нет
Параметр GMC формата : Без точки перехода
Параметр матрицы формата : Выборочная
Идентификатор кодека : XVID
Идентификатор кодека/Подсказка : XviD
Продолжительность : 1 ч. 37 м.
Битрейт : 1750 Кбит/сек
Ширина : 720 пикселей
Высота : 304 пикселя
Соотношение сторон : 2,35:1
Частота кадров : 25,000 кадров/сек
Цветовое пространство : YUV
Субдискретизация насыщенности : 4:2:0
Битовая глубина : 8 бит
Тип развёртки : Прогрессивная
Метод сжатия : С потерями
Бит/(Пиксели*Кадры) : 0.320
Размер потока : 1,19 Гбайт (82%)
Библиотека кодирования : XviD 64[br][/br]Аудио
Идентификатор : 1
Формат : AC-3
Формат/Информация : Audio Coding 3
Расширение режима : CM (complete main)
Параметр Endianness формата : Big
Идентификатор кодека : 2000
Продолжительность : 1 ч. 37 м.
Вид битрейта : Постоянный
Битрейт : 384 Кбит/сек
Каналы : 6 каналов
Расположение каналов : Front: L C R, Side: L R, LFE
Частота : 48,0 КГц
Битовая глубина : 16 бит
Метод сжатия : С потерями
Размер потока : 267 Мбайт (18%)
Выравнивание : Разделение по промежуткам
Продолжительность промежутка : 40 мс. (1,00 видеокадр)
Время предзагрузки промежутка : 500 мс.



загрузка...
Правила, инструкции, FAQ!!!
Торрент  Добавлен [28 фев 2013, 12:51] Скачать торрент
Скачать торрент
[ Размер 15.17 КБ / Просмотров 9 ]

Статус  
 
Размер  1.46 ГБ
Приватный: Нет (DHT включён)
.torrent скачан  0
Как залить торрент? | Как скачать Torrent? | Как смотреть и слушать онлайн?  


     Отправить личное сообщение
   
Страница 1 из 1
Показать сообщения за:  Поле сортировки  
Начать новую тему Ответить на тему

   Похожие торренты   Автор   Ответы   Просмотры   Последнее сообщение 
В этой теме нет новых непрочитанных сообщений. Скачать торрент Проверен Красные огни / Red Lights (Родриго Кортес / Rodrigo Cortes) [2012, Триллер, драма, детектив, BDRip] Dub

в форуме Триллеры, Размер: 1.46 ГБ, Здоровье: 100%

Гость

0
56|20

53
2

25 янв 2015, 10:14

Гость Перейти к последнему сообщению

В этой теме нет новых непрочитанных сообщений. Скачать торрент Толстяки / Gordos (Дэниэл Санчез Аревало/ Daniel Sánchez Arévalo) [2009, Испания, комедия, HDRip] MVO [Лицензия]

в форуме Комедии, Размер: 1.37 ГБ, Здоровье: 0%

Anonymous

0
0|0

26
0

19 фев 2014, 09:55

Anonymous Перейти к последнему сообщению

В этой теме нет новых непрочитанных сообщений. Скачать торрент Мужчины на грани / Una pistola en cada mano (Сеск Гай / Cesc Gay) [2012, Испания, драма, комедия, DVDRip] MVO

в форуме Драмы, Мелодрамы, Размер: 1.46 ГБ, Здоровье: 100%

Anonymous

0
12|4

17
0

09 дек 2013, 23:42

Anonymous Перейти к последнему сообщению

В этой теме нет новых непрочитанных сообщений. Скачать торрент Проверен [iPad] Любит / Не любит / Take This Waltz (Сара Полли / Sarah Polley ) [2011, Канада, Испания, Япония, драма, комедия, HDRip, SD (576p)] MVO + Original + sub (rus, eng)

в форуме Фильмы для iPod, iPhone, iPad, Размер: 1.98 ГБ, Здоровье: 100%

Гость

0
5|2

35
0

14 май 2015, 00:01

Гость Перейти к последнему сообщению

В этой теме нет новых непрочитанных сообщений. Скачать торрент Проверен Eduard Petiska / Эдуард Петишка - Svatebni Noci / Свадебные ночи [1983, FB2, PDF, RUS]

в форуме Зарубежная литература (XX и XXI век), Размер: 6.24 МБ, Здоровье: 100%

Anonymous

0
1|0

0
0

08 сен 2016, 18:40

Anonymous Перейти к последнему сообщению



Сейчас этот форум просматривают: нет зарегистрированных пользователей и гости: 1


Вы не можете начинать темы
Вы не можете отвечать на сообщения
Вы не можете редактировать свои сообщения
Вы не можете удалять свои сообщения
Вы не можете добавлять вложения

Перейти:  

!ВНИМАНИЕ!
 Ресурс не предоставляет электронные версии произведений, а занимается лишь коллекционированием и каталогизацией ссылок, присылаемых и публикуемых на форуме нашими читателями. Если вы являетесь правообладателем какого-либо представленного материала и не желаете чтобы ссылка на него находилась в нашем каталоге, свяжитесь с нами и мы незамедлительно удалим её. Файлы для обмена на трекере предоставлены пользователями сайта, и администрация не несёт ответственности за их содержание. Просьба не заливать файлы, защищенные авторскими правами, а также файлы нелегального содержания!