На всех торрентах на трекере установлена скидка на скачивание в размере 100 процентов(а).
 Возможность скачивания торрента НЕ зависит от ограничений при низком ратио, низком аплоаде, требуемом ратио или требуемом аплоаде.


Начать новую тему Ответить на тему
Статистика раздачи
Размер: 1.37 ГБ | Добавлен: 28 фев 2013, 12:49 | Скачали: 0
Сидеров: 0  [0 байт/сек]    Личеров: 0  [0 байт/сек]
Пред. тема | След. тема 

Автор
Сообщение

СообщениеДобавлено: 28 фев 2013, 12:49 

Вишенка на новогоднем торте / La cerise sur le gateau


Страна: Франция
Жанр: комедия
Год выпуска: 2012
Продолжительность: 01:19:46

Перевод: Профессиональный (многоголосый закадровый)
Cубтитры: нет
Режиссер: Лаура Моранте / Laura Morante


В фильме снимались: Лаура Моранте, Паскаль Элбе, Изабель Карре, Самир Гесми, Патрис Тибо, Фредерик Пьеро, Лусилия Клеман, Эннио Фантастичини, Ванесса Ларре, Жорж Клэсс


Вкратце: Аманда уверена — с мужчинами всегда все слишком сложно! Ее подруга считает, что Аманде пора остепениться и сделать, наконец, окончательный выбор, а психоаналитик ставит ей неутешительный диагноз: «Мадам-катастрофа», которая убивает все свои романы, едва они начинают стремиться к обручальным кольцам. Но даже женщина, которая упорно отказывается стать счастливой, не застрахована от случая. Само провидение ставит точку в ее сомнениях, словно кладет последнюю вишенку на торт.





Качество видео: DVDRip
Формат видео: AVI

Видео: 720x400 (1.80:1), 25 fps, XviD build 50 ~1995 kbps avg, 0.28 bit/pixel
Аудио: 48 kHz, AC3 Dolby Digital, 3/2 (L,C,R,l,r) + LFE ch, ~448 kbps


MediaInfo
Общее
Формат : AVI
Формат/Информация : Audio Video Interleave
Размер файла : 1,37 Гбайт
Продолжительность : 1 ч. 19 м.
Общий поток : 2453 Кбит/сек
Название фильма : Vishenka.na.novogodnem.torte.2012.P.DVDRip.IRONCLUB
Режиссёр : IRONCLUB
Жанр : Comedy
Программа кодирования : VirtualDubMod 1.5.10.3 | virtualdub-fr.org || (build 2550/release)
Формат оригинала/Имя : Movie[br][/br]Видео
Идентификатор : 0
Формат : MPEG-4 Visual
Профиль формата : Advanced Simple@L5
Параметр BVOP формата : 1
Параметр QPel формата : Нет
Параметр GMC формата : Без точки перехода
Параметр матрицы формата : Выборочная
Идентификатор кодека : XVID
Идентификатор кодека/Подсказка : XviD
Продолжительность : 1 ч. 19 м.
Битрейт : 1995 Кбит/сек
Ширина : 720 пикселей
Высота : 400 пикселей
Соотношение сторон : 16:9
Частота кадров : 25,000 кадров/сек
Цветовое пространство : YUV
Субдискретизация насыщенности : 4:2:0
Битовая глубина : 8 бит
Тип развёртки : Прогрессивная
Метод сжатия : С потерями
Бит/(Пиксели*Кадры) : 0.277
Размер потока : 1,11 Гбайт (81%)
Библиотека кодирования : XviD 1.2.1 (UTC 2008-12-04)[br][/br]Аудио
Идентификатор : 1
Формат : AC-3
Формат/Информация : Audio Coding 3
Расширение режима : CM (complete main)
Параметр Endianness формата : Big
Идентификатор кодека : 2000
Продолжительность : 1 ч. 19 м.
Вид битрейта : Постоянный
Битрейт : 448 Кбит/сек
Каналы : 6 каналов
Расположение каналов : Front: L C R, Side: L R, LFE
Частота : 48,0 КГц
Битовая глубина : 16 бит
Метод сжатия : С потерями
Размер потока : 256 Мбайт (18%)
Выравнивание : Разделение по промежуткам
Продолжительность промежутка : 40 мс. (1,00 видеокадр)
Время предзагрузки промежутка : 500 мс.



загрузка...
Правила, инструкции, FAQ!!!
Торрент  Добавлен [28 фев 2013, 12:49] Скачать торрент
Скачать торрент
[ Размер 14.18 КБ / Просмотров 11 ]

Статус  
 
Размер  1.37 ГБ
Приватный: Нет (DHT включён)
.torrent скачан  0
Как залить торрент? | Как скачать Torrent? | Как смотреть и слушать онлайн?  


     Отправить личное сообщение
   
Страница 1 из 1
Показать сообщения за:  Поле сортировки  
Начать новую тему Ответить на тему

   Похожие торренты   Автор   Ответы   Просмотры   Последнее сообщение 
В этой теме нет новых непрочитанных сообщений. Скачать торрент Проверен Лаура Рестрепо / Laura Restrepo - Леопард на солнце / Leopardo si sol [2004 (1993), rtf, fb2, rus]

в форуме Зарубежная литература (XX и XXI век), Размер: 1.36 МБ, Здоровье: 0%

Anonymous

0
0|0

0
0

08 сен 2016, 18:41

Anonymous Перейти к последнему сообщению

В этой теме нет новых непрочитанных сообщений. Скачать торрент Проверен Laura Santos / Лаура Сантос - O Mestre Cozinheiro / Шеф-повар [1984, DjVu, PRT]

в форуме Кулинария, Размер: 61.63 МБ, Здоровье: 0%

Anonymous

0
0|0

0
0

19 окт 2016, 22:41

Anonymous Перейти к последнему сообщению

В этой теме нет новых непрочитанных сообщений. Скачать торрент Бамбу / Bambou (Дидье Бурдон / Didier Bourdon) [2009, Франция, комедия, DVDRip]

в форуме Комедии, Размер: 1.46 ГБ, Здоровье: 0%

Anonymous

0
0|0

21
0

02 апр 2014, 12:08

Anonymous Перейти к последнему сообщению

В этой теме нет новых непрочитанных сообщений. Скачать торрент Имена людей / Le nom des gens (Мишель Леклерк / Michel Leclerc) [2010, Франция, комедия, DVDRip]

в форуме Комедии, Размер: 701.85 МБ, Здоровье: 0%

Anonymous

0
0|0

34
1

02 апр 2014, 12:08

Anonymous Перейти к последнему сообщению

В этой теме нет новых непрочитанных сообщений. Скачать торрент Шайтан / Sheitan (Ким Шапирон / Kim Shapiron) [2006, Франция, ужасы, комедия, триллер, DVDRip] DUB + sub rus+ original fre

в форуме Ужасы, Размер: 1.73 ГБ, Здоровье: 0%

Anonymous

0
0|0

30
0

04 фев 2014, 21:24

Anonymous Перейти к последнему сообщению



Сейчас этот форум просматривают: нет зарегистрированных пользователей и гости: 2


Вы не можете начинать темы
Вы не можете отвечать на сообщения
Вы не можете редактировать свои сообщения
Вы не можете удалять свои сообщения
Вы не можете добавлять вложения

Перейти:  

!ВНИМАНИЕ!
 Ресурс не предоставляет электронные версии произведений, а занимается лишь коллекционированием и каталогизацией ссылок, присылаемых и публикуемых на форуме нашими читателями. Если вы являетесь правообладателем какого-либо представленного материала и не желаете чтобы ссылка на него находилась в нашем каталоге, свяжитесь с нами и мы незамедлительно удалим её. Файлы для обмена на трекере предоставлены пользователями сайта, и администрация не несёт ответственности за их содержание. Просьба не заливать файлы, защищенные авторскими правами, а также файлы нелегального содержания!